Download Wings Over Everest (2019) 720p BluRay Dual Audio [Hindi ORG DD 2 0 + Chinese] x264 AAC By Full4Movies mkv torrent - GloDLS
HTML tutorial
Torrent Details For "Wings Over Everest (2019) 720p BluRay Dual Audio [Hindi ORG DD 2 0 + Chinese] x264 AA..."

Wings Over Everest (2019) 720p BluRay Dual Audio [Hindi ORG DD 2 0 + Chinese] x264 AA...

To download this torrent, you need a BitTorrent client: Vuze or BTGuard
Download this torrent
Download using Magnet Link

Health:
Seeds: 1
Leechers: 1
Completed:
Last Checked: 14-10-2021 02:39:40

Uploader Reputation points : 6668





Write a Review for the Uploader:   5   Say Thanks with one good review:
Share on Facebook


Details
Name:Wings Over Everest (2019) 720p BluRay Dual Audio [Hindi ORG DD 2 0 + Chinese] x264 AA...
Description:


Visit Us = https://www.full4movies.site/



General
Complete name                  : Wings Over Everest (2019) 720p BluRay Dual Audio [Hindi ORG DD 2.0 + Chinese] x264 AAC  By Full4Movies.mkv
Format                         : Matroska
Format version                 : Version 4
File size                      : 1.17 GiB
Duration                       : 1 h 50 min
Overall bit rate               : 1 504 kb/s
Encoded date                   : UTC 2021-10-12 11:08:40
Writing application            : mkvmerge v8.3.0 ('Over the Horizon') 64bit
Writing library                : libebml v1.3.1 + libmatroska v1.4.2
Attachments                    : +Full4Movies.jpg

Video
ID                             : 1
Format                         : AVC
Format/Info                    : Advanced Video Codec
Format profile                 : [email protected]
Format settings                : CABAC / 4 Ref Frames
Format settings, CABAC         : Yes
Format settings, Reference fra : 4 frames
Codec ID                       : V_MPEG4/ISO/AVC
Duration                       : 1 h 50 min
Bit rate                       : 1 150 kb/s
Width                          : 1 280 pixels
Height                         : 534 pixels
Display aspect ratio           : 2.40:1
Original display aspect ratio  : 2.40:1
Frame rate mode                : Constant
Frame rate                     : 23.976 (24000/1001) FPS
Color space                    : YUV
Chroma subsampling             : 4:2:0
Bit depth                      : 8 bits
Scan type                      : Progressive
Bits/(Pixel*Frame)             : 0.070
Stream size                    : 912 MiB (76%)
Writing library                : x264 core 158
Language                       : Chinese
Default                        : Yes
Forced                         : Yes

Audio #1
ID                             : 2
Format                         : AC-3
Format/Info                    : Audio Coding 3
Commercial name                : Dolby Digital
Format settings                : Dolby Surround
Codec ID                       : A_AC3
Duration                       : 1 h 50 min
Bit rate mode                  : Constant
Bit rate                       : 224 kb/s
Channel(s)                     : 2 channels
Channel layout                 : L R
Sampling rate                  : 48.0 kHz
Frame rate                     : 31.250 FPS (1536 SPF)
Compression mode               : Lossy
Delay relative to video        : -21 ms
Stream size                    : 178 MiB (15%)
Language                       : Hindi
Service kind                   : Complete Main
Default                        : Yes
Forced                         : Yes

Audio #2
ID                             : 3
Format                         : AAC LC
Format/Info                    : Advanced Audio Codec Low Complexity
Codec ID                       : A_AAC-2
Duration                       : 1 h 50 min
Bit rate                       : 128 kb/s
Channel(s)                     : 2 channels
Channel layout                 : L R
Sampling rate                  : 48.0 kHz
Frame rate                     : 46.875 FPS (1024 SPF)
Compression mode               : Lossy
Delay relative to video        : -21 ms
Stream size                    : 102 MiB (9%)
Language                       : Chinese
Default                        : No
Forced                         : No

Text
ID                             : 4
Format                         : UTF-8
Codec ID                       : S_TEXT/UTF8
Codec ID/Info                  : UTF-8 Plain Text
Duration                       : 1 h 49 min
Bit rate                       : 30 b/s
Count of elements              : 891
Stream size                    : 24.9 KiB (0%)
Language                       : English
Default                        : Yes
Forced                         : Yes

Screen Shoots

YouTube Video:
Category:Movies
Language:Dubs/Dual Audio
Total Size:1.17 GB
Info Hash:EC2E3B108E25103281B8E83B9A98602A5401BD94
Added By:india4movie Verified Uploader
Date Added:2021-10-14 09:39:39
Torrent Status:Torrent Verified


Ratings:Not Yet Rated (Log in to rate it)


Tracker:
udp://tracker.opentrackr.org:1337/announce

This Torrent also has backup trackers
URLSeedersLeechersCompleted
udp://tracker.opentrackr.org:1337/announce000
udp://9.rarbg.me:2790/announce000
udp://9.rarbg.to:2800/announce000
http://tracker.dler.org:6969/announce000
udp://tracker.internetwarriors.net:1337/announce000
udp://open.stealth.si:80/announce000
udp://fasttracker.foreverpirates.co:6969/announce000
udp://tracker.uw0.xyz:6969/announce000
udp://tracker.dler.org:6969/announce000
udp://opentor.org:2710/announce000
udp://open.stealth.si:80/announce000
udp://9.rarbg.me:2980/announce000
udp://tracker.openbittorrent.com:80/announce000


File List: 





Comments
No comments still posted