Download Wings Over Everest (2019) 480p BluRay Dual Audio [Hindi ORG DD 2 0 + Chinese] x264 AAC By Full4Movies mkv torrent - GloDLS
Login
Username:
Password:
Remember Me:
[Signup]
[Recover Account]
Friends
Angie Torrents
Friendly Site

Pirateiro
Friendly site

Free Courses Online
Friendly site

ETTV
Friendly site

ProStyleX
Friendly site

KaranPC
Friendly site

P2PDL.com
Friendly site

OneHack
Friendly site

IGGGames
Friendly site

HTML tutorial
Torrent Details For "Wings Over Everest (2019) 480p BluRay Dual Audio [Hindi ORG DD 2 0 + Chinese] x264 AA..."

Wings Over Everest (2019) 480p BluRay Dual Audio [Hindi ORG DD 2 0 + Chinese] x264 AA...

To download this torrent, you need a BitTorrent client: Vuze or BTGuard
Download this torrent
Download using Magnet Link

Health:
Seeds: 33
Leechers: 8
Completed: 32 
Last Checked: 14-10-2021 05:57:21

Uploader Reputation points : 6790





Write a Review for the Uploader:   5   Say Thanks with one good review:
Share on Facebook


Details
Name:Wings Over Everest (2019) 480p BluRay Dual Audio [Hindi ORG DD 2 0 + Chinese] x264 AA...
Description:


Visit Us = https://www.full4movies.site/



General
Complete name                  : Wings Over Everest (2019) 480p BluRay Dual Audio [Hindi ORG DD 2.0 + Chinese] x264 AAC  By Full4Movies.mkv
Format                         : Matroska
Format version                 : Version 4
File size                      : 398 MiB
Duration                       : 1 h 50 min
Overall bit rate               : 501 kb/s
Encoded date                   : UTC 2021-10-12 11:07:11
Writing application            : mkvmerge v8.3.0 ('Over the Horizon') 64bit
Writing library                : libebml v1.3.1 + libmatroska v1.4.2
Attachments                    : +Full4Movies.jpg

Video
ID                             : 1
Format                         : AVC
Format/Info                    : Advanced Video Codec
Format profile                 : [email protected]
Format settings                : CABAC / 4 Ref Frames
Format settings, CABAC         : Yes
Format settings, Reference fra : 4 frames
Codec ID                       : V_MPEG4/ISO/AVC
Duration                       : 1 h 50 min
Bit rate                       : 411 kb/s
Width                          : 720 pixels
Height                         : 300 pixels
Display aspect ratio           : 2.40:1
Frame rate mode                : Constant
Frame rate                     : 23.976 (24000/1001) FPS
Color space                    : YUV
Chroma subsampling             : 4:2:0
Bit depth                      : 8 bits
Scan type                      : Progressive
Bits/(Pixel*Frame)             : 0.079
Stream size                    : 326 MiB (82%)
Writing library                : x264 core 142 r2479 dd79a61
Default                        : Yes
Forced                         : No
Color range                    : Limited
Color primaries                : BT.709
Transfer characteristics       : BT.709
Matrix coefficients            : BT.709

Audio #1
ID                             : 2
Format                         : AAC LC SBR
Format/Info                    : Advanced Audio Codec Low Complexity with Spectral Band Replication
Commercial name                : HE-AAC
Format settings                : NBC
Codec ID                       : A_AAC-5
Duration                       : 1 h 50 min
Bit rate                       : 56.0 kb/s
Channel(s)                     : 2 channels
Channel layout                 : L R
Sampling rate                  : 48.0 kHz
Frame rate                     : 23.438 FPS (2048 SPF)
Compression mode               : Lossy
Delay relative to video        : -105 ms
Stream size                    : 44.5 MiB (11%)
Language                       : Hindi
Default                        : Yes
Forced                         : No

Audio #2
ID                             : 3
Format                         : AAC LC SBR
Format/Info                    : Advanced Audio Codec Low Complexity with Spectral Band Replication
Commercial name                : HE-AAC
Format settings                : NBC
Codec ID                       : A_AAC-5
Duration                       : 1 h 50 min
Bit rate                       : 32.0 kb/s
Channel(s)                     : 2 channels
Channel layout                 : L R
Sampling rate                  : 48.0 kHz
Frame rate                     : 23.438 FPS (2048 SPF)
Compression mode               : Lossy
Delay relative to video        : -105 ms
Stream size                    : 25.4 MiB (6%)
Language                       : Chinese
Default                        : No
Forced                         : No

Text
ID                             : 4
Format                         : ASS
Codec ID                       : S_TEXT/ASS
Codec ID/Info                  : Advanced Sub Station Alpha
Duration                       : 1 h 49 min
Bit rate                       : 56 b/s
Count of elements              : 891
Compression mode               : Lossless
Stream size                    : 45.2 KiB (0%)
Language                       : English
Default                        : No
Forced                         : No

Screen Shoots
YouTube Video:
Category:Movies
Language:Hindi  Hindi
Total Size:397.69 MB
Info Hash:B52CD68D38F054220E7303A36D8391B7553405C2
Added By:india4movie Verified Uploader
Date Added:2021-10-14 09:37:02
Torrent Status:Torrent Verified


Ratings:Not Yet Rated (Log in to rate it)


Tracker:
udp://tracker.opentrackr.org:1337/announce

This Torrent also has backup trackers
URLSeedersLeechersCompleted
udp://tracker.opentrackr.org:1337/announce417
udp://9.rarbg.me:2790/announce615
udp://9.rarbg.to:2800/announce615
http://tracker.dler.org:6969/announce000
udp://tracker.internetwarriors.net:1337/announce313
udp://open.stealth.si:80/announce313
udp://fasttracker.foreverpirates.co:6969/announce000
udp://tracker.uw0.xyz:6969/announce000
udp://tracker.dler.org:6969/announce000
udp://opentor.org:2710/announce211
udp://open.stealth.si:80/announce313
udp://9.rarbg.me:2980/announce615
udp://tracker.openbittorrent.com:80/announce000


File List: 





Comments
No comments still posted