Download What If 2021 S01E06 1080p DSNP WEBRip DDP5 1 x264-FLUX torrent - GloDLS
HTML tutorial
Torrent Details For "What If 2021 S01E06 1080p DSNP WEBRip DDP5 1 x264-FLUX"

What If 2021 S01E06 1080p DSNP WEBRip DDP5 1 x264-FLUX

To download this torrent, you need a BitTorrent client: Vuze or BTGuard
Download this torrent
Download using Magnet Link

Health:
Seeds: 1
Leechers: 1
Completed:
Last Checked: 15-09-2021 08:11:54

Uploader Reputation points : 10707





Write a Review for the Uploader:   40   Say Thanks with one good review:
Share on Facebook
TV Info

What If? (2011)

Wat als? is a rollercoaster of sketches, in a humorous way. Each episode contains about twelve unique sketches. Each sketch starts with the same question: 'What if'.



Details
Name:What If 2021 S01E06 1080p DSNP WEBRip DDP5 1 x264-FLUX
Description:




Video
ID : 1
Format : AVC
Format/Info : Advanced Video Codec
Format profile : [email protected]
Format settings : CABAC / 4 Ref Frames
Format settings, CABAC : Yes
Format settings, Reference frames : 4 frames
Codec ID : V_MPEG4/ISO/AVC
Duration : 31 min 2 s
Bit rate mode : Variable
Bit rate : 6 034 kb/s
Maximum bit rate : 12.7 Mb/s
Width : 1 920 pixels
Height : 1 080 pixels
Display aspect ratio : 16:9
Frame rate mode : Constant
Frame rate : 24.000 FPS
Color space : YUV
Chroma subsampling : 4:2:0
Bit depth : 8 bits
Scan type : Progressive
Bits/(Pixel*Frame) : 0.121
Stream size : 1.31 GiB (89%)
Default : Yes
Forced : No
Color range : Limited
Color primaries : BT.709
Transfer characteristics : BT.709
Matrix coefficients : BT.709

Audio
ID : 2
Format : E-AC-3 JOC
Format/Info : Enhanced AC-3 with Joint Object Coding
Commercial name : Dolby Digital Plus with Dolby Atmos
Codec ID : A_EAC3
Duration : 31 min 2 s
Bit rate mode : Constant
Bit rate : 768 kb/s
Channel(s) : 6 channels
Channel layout : L R C LFE Ls Rs
Sampling rate : 48.0 kHz
Frame rate : 31.250 FPS (1536 SPF)
Compression mode : Lossy
Stream size : 171 MiB (11%)
Language : English

Screens:





YouTube Video:
Category:TV
Language:English  English
Total Size:1.48 GB
Info Hash:179470198EC57F27DFA5AADED300FA9C96A65520
Added By:Radioactive Verified UploaderMovie PirateVIP
Date Added:2021-09-15 15:11:53
Torrent Status:Torrent Verified


Ratings:Not Yet Rated (Log in to rate it)


Tracker:
udp://open.stealth.si:80/announce

This Torrent also has backup trackers
URLSeedersLeechersCompleted
udp://open.stealth.si:80/announce000
udp://tracker.tiny-vps.com:6969/announce000
udp://fasttracker.foreverpirates.co:6969/announce000
udp://tracker.opentrackr.org:1337/announce000
udp://explodie.org:6969/announce000
udp://tracker.cyberia.is:6969/announce000
udp://ipv4.tracker.harry.lu:80/announce000
udp://tracker.uw0.xyz:6969/announce000
udp://opentracker.i2p.rocks:6969/announce000
udp://tracker.birkenwald.de:6969/announce000
udp://tracker.torrent.eu.org:451/announce000
udp://tracker.moeking.me:6969/announce000
udp://tracker.dler.org:6969/announce000
udp://9.rarbg.me:2970/announce000


File List: 





Comments
No comments still posted