Download Voyagers 2021 HDRip XviD B4ND1T69 torrent - GloDLS
Login
Username:
Password:
Remember Me:
[Signup]
[Recover Account]
Friends
Angie Torrents
Friendly Site

Pirateiro
Friendly site

Free Courses Online
Friendly site

ETTV
Friendly site

ProStyleX
Friendly site

KaranPC
Friendly site

P2PDL.com
Friendly site

OneHack
Friendly site

IGGGames
Friendly site

Torrent Details For "Voyagers 2021 HDRip XviD B4ND1T69"

Voyagers 2021 HDRip XviD B4ND1T69

To download this torrent, you need a BitTorrent client: Vuze or BTGuard
Download this torrent
Download using Magnet Link

Health:
Seeds: 141
Leechers: 24
Completed: 1,302 
Last Checked: 13-05-2021 13:00:57

Uploader Reputation points : 778
External: Torrent






Write a Review for the Uploader:   0   Say Thanks with one good review:
Share on Facebook


Details
Name:Voyagers 2021 HDRip XviD B4ND1T69
Description:
Voyagers.2021.HDRip.XviD.B4ND1T69



Director: Neil Burger
Writer: Neil Burger
Stars: Colin Farrell, Tye Sheridan, Lily-Rose Depp

Plot/Story:
A crew of astronauts on a multi-generational mission descend into paranoia and madness, not knowing what is real or not.

General
Complete name               : Voyagers.2021.HDRip.XviD.B4ND1T69.avi
Format                      : AVI
Format/Info                 : Audio Video Interleave
File size                   : 749 MiB
Duration                    : 1 h 47 min
Overall bit rate            : 970 kb/s
Subtitles                   : Yes...Included(HI)

Video
ID                          : 0
Format                      : MPEG-4 Visual
Format profile              : Advanced [email protected]
Format settings, BVOP       : 2
Format settings, QPel       : No
Format settings, GMC        : No warppoints
Format settings, Matrix     : Default (H.263)
Codec ID                    : XVID
Codec ID/Hint               : XviD
Duration                    : 1 h 47 min
Bit rate                    : 829 kb/s
Width                       : 720 pixels
Height                      : 304 pixels
Display aspect ratio        : 2.35:1
Frame rate                  : 23.976 (24000/1001) FPS
Color space                 : YUV
Chroma subsampling          : 4:2:0
Bit depth                   : 8 bits
Scan type                   : Progressive
Compression mode            : Lossy
Bits/(Pixel*Frame)          : 0.158
Stream size                 : 640 MiB (85%)
Writing library             : XviD 64

Audio
ID                          : 1
Format                      : MPEG Audio
Format version              : Version 1
Format profile              : Layer 3
Codec ID                    : 55
Codec ID/Hint               : MP3
Duration                    : 1 h 47 min
Bit rate mode               : Constant
Bit rate                    : 128 kb/s
Channel(s)                  : 2 channels
Sampling rate               : 48.0 kHz
Compression mode            : Lossy
Stream size                 : 98.8 MiB (13%)
Alignment                   : Aligned on interleaves
Interleave, duration        : 24  ms (0.58 video frame)

Screenshots:










Please Seed For As Long As Possible
Or At Least 1:1 Ratio...Thanks
Enjoy Peeps
YouTube Video:   
Category:Movies
Language:English  English
Total Size:749.34 MB
Info Hash:7BDD6699D9B51CF28DDB9A8CEC0633C23306CF42
Added By:B4ND1T69 Verified UploaderMovie Pirate
Date Added:2021-05-04 23:39:54
Torrent Status:Torrent Verified


Ratings:Not Yet Rated (Log in to rate it)


Tracker:
udp://tracker.opentrackr.org:1337/announce

This Torrent also has backup trackers
URLSeedersLeechersCompleted
udp://tracker.opentrackr.org:1337/announce245525
udp://exodus.desync.com:6969/announce1431
udp://open.demonii.si:1337/announce000
udp://9.rarbg.to:2750/announce000
udp://open.stealth.si:80/announce173200
udp://tracker.uw0.xyz:6969/announce163203
udp://tracker.tiny-vps.com:6969/announce1423
udp://fasttracker.foreverpirates.co:6969/announce000
udp://explodie.org:6969/announce520
udp://tracker.cyberia.is:6969/announce000
udp://ipv4.tracker.harry.lu:80/announce610
udp://opentracker.i2p.rocks:6969/announce183326
udp://tracker.moeking.me:6969/announce11011
udp://opentor.org:2710/announce16233
udp://tracker.dler.org:6969/announce000


File List: 





Comments
No comments still posted