Download Valeba Raja (2016) 720p HEVC Hindi Dubbed WEB-HDRip x264 AAC DD 2 0 By Full4Movies mkv torrent - GloDLS
Login
Username:
Password:
Remember Me:
[Signup]
[Recover Account]
Friends
Angie Torrents
Friendly Site

Pirateiro
Friendly site

Free Courses Online
Friendly site

ETTV
Friendly site

ProStyleX
Friendly site

KaranPC
Friendly site

P2PDL.com
Friendly site

OneHack
Friendly site

IGGGames
Friendly site

HTML tutorial
Torrent Details For "Valeba Raja (2016) 720p HEVC Hindi Dubbed WEB-HDRip x264 AAC DD 2 0 By Full4Movies mk..."

Valeba Raja (2016) 720p HEVC Hindi Dubbed WEB-HDRip x264 AAC DD 2 0 By Full4Movies mk...

To download this torrent, you need a BitTorrent client: Vuze or BTGuard
Download this torrent
Download using Magnet Link

Health:
Seeds: 8
Leechers: 14
Completed:
Last Checked: 14-10-2021 05:53:36

Uploader Reputation points : 6790





Write a Review for the Uploader:   5   Say Thanks with one good review:
Share on Facebook


Details
Name:Valeba Raja (2016) 720p HEVC Hindi Dubbed WEB-HDRip x264 AAC DD 2 0 By Full4Movies mk...
Description:


Visit Us = https://www.full4movies.site/



General
Complete name                  : Valeba Raja (2016) 720p HEVC Hindi Dubbed WEB-HDRip x264 AAC DD 2.0 By Full4Movies.mkv
Format                         : Matroska
Format version                 : Version 4
File size                      : 516 MiB
Duration                       : 1 h 36 min
Overall bit rate               : 751 kb/s
Encoded date                   : UTC 2021-10-13 16:20:03 / UTC
Writing application            : mkvmerge v8.3.0 ('Over the Horizon') 64bit
Writing library                : libebml v1.3.1 + libmatroska v1.4.2 / Lavf55.12.0
Attachments                    : 383845052472320.jpg

Video
ID                             : 1
Format                         : HEVC
Format/Info                    : High Efficiency Video Coding
Format profile                 : [email protected]@Main
Codec ID                       : V_MPEGH/ISO/HEVC
Duration                       : 1 h 36 min
Bit rate                       : 653 kb/s
Width                          : 1 280 pixels
Height                         : 548 pixels
Display aspect ratio           : 2.35:1
Frame rate mode                : Constant
Frame rate                     : 25.000 FPS
Color space                    : YUV
Chroma subsampling             : 4:2:0
Bit depth                      : 8 bits
Bits/(Pixel*Frame)             : 0.037
Stream size                    : 449 MiB (87%)
Writing library                : x265 2.1:[Windows][GCC 5.3.1][64 bit] 8bit
Encoding settings              : wpp / ctu=64 / min-cu-size=8 / max-tu-size=32 / tu-intra-depth=1 / tu-inter-depth=1 / me=1 / subme=2 / merange=57 / no-rect / no-amp / max-merge=2 / temporal-mvp / no-early-skip / rskip / rdpenalty=0 / no-tskip / no-tskip-fast / strong-intra-smoothing / no-lossless / no-cu-lossless / no-constrained-intra / no-fast-intra / open-gop / no-temporal-layers / interlace=0 / keyint=250 / min-keyint=25 / scenecut=40 / rc-lookahead=20 / lookahead-slices=0 / bframes=4 / bframe-bias=0 / b-adapt=2 / ref=3 / limit-refs=3 / no-limit-modes / weightp / no-weightb / aq-mode=1 / qg-size=32 / aq-strength=1.00 / cbqpoffs=0 / crqpoffs=0 / rd=3 / psy-rd=2.00 / rdoq-level=0 / psy-rdoq=0.00 / log2-max-poc-lsb=8 / no-rd-refine / signhide / deblock=0:0 / sao / no-sao-non-deblock / b-pyramid / cutree / no-intra-refresh / rc=2 / pass / bitrate=652 / qcomp=0.60 / qpmin=0 / qpmax=69 / qpstep=4 / cplxblur=20.0 / qblur=0.5 / ipratio=1.40 / pbratio=1.30
Default                        : Yes
Forced                         : No
Color range                    : Limited
Color primaries                : BT.709
Transfer characteristics       : BT.709
Matrix coefficients            : BT.709

Audio
ID                             : 2
Format                         : AAC LC SBR
Format/Info                    : Advanced Audio Codec Low Complexity with Spectral Band Replication
Commercial name                : HE-AAC
Format settings                : NBC
Codec ID                       : A_AAC-5
Duration                       : 1 h 36 min
Bit rate                       : 96.0 kb/s
Channel(s)                     : 2 channels
Channel layout                 : L R
Sampling rate                  : 44.1 kHz
Frame rate                     : 21.533 FPS (2048 SPF)
Compression mode               : Lossy
Stream size                    : 66.0 MiB (13%)
Language                       : English
Default                        : Yes
Forced                         : No

Screen Shoots
YouTube Video:
Category:Movies
Language:Hindi  Hindi
Total Size:516.13 MB
Info Hash:62A09FF9610943E7342788E6C89B0845C112C5AE
Added By:india4movie Verified Uploader
Date Added:2021-10-14 11:50:03
Torrent Status:Torrent Verified


Ratings:Not Yet Rated (Log in to rate it)


Tracker:
udp://tracker.opentrackr.org:1337/announce

This Torrent also has backup trackers
URLSeedersLeechersCompleted
udp://tracker.opentrackr.org:1337/announce120
udp://9.rarbg.me:2790/announce110
udp://9.rarbg.to:2800/announce110
http://tracker.dler.org:6969/announce000
udp://tracker.internetwarriors.net:1337/announce110
udp://open.stealth.si:80/announce130
udp://fasttracker.foreverpirates.co:6969/announce000
udp://tracker.uw0.xyz:6969/announce000
udp://tracker.dler.org:6969/announce000
udp://opentor.org:2710/announce120
udp://open.stealth.si:80/announce130
udp://9.rarbg.me:2980/announce110
udp://tracker.openbittorrent.com:80/announce000


File List: 





Comments
No comments still posted