Download Valeba Raja (2016) 480p Hindi Dubbed WEB-HDRip x264 AAC DD 2 0 By Full4Movies mkv torrent - GloDLS
Login
Username:
Password:
Remember Me:
[Signup]
[Recover Account]
Friends
Angie Torrents
Friendly Site

Pirateiro
Friendly site

Free Courses Online
Friendly site

ETTV
Friendly site

ProStyleX
Friendly site

KaranPC
Friendly site

P2PDL.com
Friendly site

OneHack
Friendly site

IGGGames
Friendly site

HTML tutorial
Torrent Details For "Valeba Raja (2016) 480p Hindi Dubbed WEB-HDRip x264 AAC DD 2 0 By Full4Movies mkv"

Valeba Raja (2016) 480p Hindi Dubbed WEB-HDRip x264 AAC DD 2 0 By Full4Movies mkv

To download this torrent, you need a BitTorrent client: Vuze or BTGuard
Download this torrent
Download using Magnet Link

Health:
Seeds: 10
Leechers: 4
Completed:
Last Checked: 14-10-2021 05:53:10

Uploader Reputation points : 6790





Write a Review for the Uploader:   5   Say Thanks with one good review:
Share on Facebook


Details
Name:Valeba Raja (2016) 480p Hindi Dubbed WEB-HDRip x264 AAC DD 2 0 By Full4Movies mkv
Description:


Visit Us = https://www.full4movies.site/



General
Complete name                  : Valeba Raja (2016) 480p Hindi Dubbed WEB-HDRip x264 AAC DD 2.0 By Full4Movies.mkv
Format                         : Matroska
Format version                 : Version 4
File size                      : 342 MiB
Duration                       : 1 h 36 min
Overall bit rate               : 498 kb/s
Encoded date                   : UTC 2021-10-13 16:19:39
Writing application            : mkvmerge v8.3.0 ('Over the Horizon') 64bit
Writing library                : libebml v1.3.1 + libmatroska v1.4.2
Attachments                    : 383845052472320.jpg

Video
ID                             : 1
Format                         : AVC
Format/Info                    : Advanced Video Codec
Format profile                 : [email protected]
Format settings                : CABAC / 4 Ref Frames
Format settings, CABAC         : Yes
Format settings, Reference fra : 4 frames
Codec ID                       : V_MPEG4/ISO/AVC
Duration                       : 1 h 36 min
Bit rate                       : 400 kb/s
Width                          : 720 pixels
Height                         : 308 pixels
Display aspect ratio           : 2.35:1
Frame rate mode                : Constant
Frame rate                     : 25.000 FPS
Color space                    : YUV
Chroma subsampling             : 4:2:0
Bit depth                      : 8 bits
Scan type                      : Progressive
Bits/(Pixel*Frame)             : 0.072
Stream size                    : 275 MiB (80%)
Writing library                : x264 core 142 r2479 dd79a61
Default                        : Yes
Forced                         : No
Color range                    : Limited
Color primaries                : BT.709
Transfer characteristics       : BT.709
Matrix coefficients            : BT.709

Audio
ID                             : 2
Format                         : AAC LC SBR
Format/Info                    : Advanced Audio Codec Low Complexity with Spectral Band Replication
Commercial name                : HE-AAC
Format settings                : NBC
Codec ID                       : A_AAC-5
Duration                       : 1 h 36 min
Bit rate                       : 96.0 kb/s
Channel(s)                     : 2 channels
Channel layout                 : L R
Sampling rate                  : 44.1 kHz
Frame rate                     : 21.533 FPS (2048 SPF)
Compression mode               : Lossy
Delay relative to video        : -115 ms
Stream size                    : 66.0 MiB (19%)
Title                          : Stereo
Language                       : English
Default                        : Yes
Forced                         : No

Screen Shoots
YouTube Video:
Category:Movies
Language:Hindi  Hindi
Total Size:342.25 MB
Info Hash:91E1FA0432F7919F1587C78E1718638746942DE0
Added By:india4movie Verified Uploader
Date Added:2021-10-14 11:47:02
Torrent Status:Torrent Verified


Ratings:Not Yet Rated (Log in to rate it)


Tracker:
udp://tracker.opentrackr.org:1337/announce

This Torrent also has backup trackers
URLSeedersLeechersCompleted
udp://tracker.opentrackr.org:1337/announce320
udp://9.rarbg.me:2790/announce100
udp://9.rarbg.to:2800/announce100
http://tracker.dler.org:6969/announce000
udp://tracker.internetwarriors.net:1337/announce100
udp://open.stealth.si:80/announce110
udp://fasttracker.foreverpirates.co:6969/announce000
udp://tracker.uw0.xyz:6969/announce000
udp://tracker.dler.org:6969/announce000
udp://opentor.org:2710/announce100
udp://open.stealth.si:80/announce110
udp://9.rarbg.me:2980/announce100
udp://tracker.openbittorrent.com:80/announce000


File List: 





Comments
No comments still posted