Download V/H/S/94 (2021) Rus Eng (Rus Eng Subs) 1080p WEB-DL ViruseProject torrent - GloDLS
HTML tutorial
Torrent Details For "V/H/S/94 (2021) Rus Eng (Rus Eng Subs) 1080p WEB-DL ViruseProject"

V/H/S/94 (2021) Rus Eng (Rus Eng Subs) 1080p WEB-DL ViruseProject

To download this torrent, you need a BitTorrent client: Vuze or BTGuard
Download this torrent
Download using Magnet Link

Health:
Seeds: 1,047
Leechers: 1,049
Completed: 884 
Last Checked: 23-11-2021 19:02:48

Uploader Reputation points : 204





Write a Review for the Uploader:   0   Say Thanks with one good review:
Share on Facebook


Details
Name:V/H/S/94 (2021) Rus Eng (Rus Eng Subs) 1080p WEB-DL ViruseProject
Description:


https://www.youtube.com/watch?v=opnSln8Ue2U

https://www.imdb.com/title/tt14867006






Video
ID                                       : 1
Format                                   : AVC
Format/Info                              : Advanced Video Codec
Format profile                           : [email protected]
Format settings                          : CABAC / 4 Ref Frames
Format settings, CABAC                   : Yes
Format settings, Reference frames        : 4 frames
Codec ID                                 : V_MPEG4/ISO/AVC
Duration                                 : 1 h 43 min
Bit rate                                 : 13.5 Mb/s
Width                                    : 1 920 pixels
Height                                   : 1 080 pixels
Display aspect ratio                     : 16:9
Frame rate mode                          : Constant
Frame rate                               : 30.000 FPS
Color space                              : YUV
Chroma subsampling                       : 4:2:0
Bit depth                                : 8 bits
Scan type                                : Progressive
Bits/(Pixel*Frame)                       : 0.217
Stream size                              : 9.76 GiB (97%)
Language                                 : English
Default                                  : Yes
Forced                                   : No
Color range                              : Limited
Color primaries                          : BT.709
Transfer characteristics                 : BT.709
Matrix coefficients                      : BT.709

Audio #1
ID                                       : 2
Format                                   : AC-3
Format/Info                              : Audio Coding 3
Commercial name                          : Dolby Digital
Codec ID                                 : A_AC3
Duration                                 : 1 h 43 min
Bit rate mode                            : Constant
Bit rate                                 : 224 kb/s
Channel(s)                               : 2 channels
Channel layout                           : L R
Sampling rate                            : 48.0 kHz
Frame rate                               : 31.250 FPS (1536 SPF)
Compression mode                         : Lossy
Stream size                              : 166 MiB (2%)
Title                                    : ViruseProject
Language                                 : Russian
Service kind                             : Complete Main
Default                                  : Yes
Forced                                   : No

Audio #2
ID                                       : 3
Format                                   : E-AC-3
Format/Info                              : Enhanced AC-3
Commercial name                          : Dolby Digital Plus
Codec ID                                 : A_EAC3
Duration                                 : 1 h 43 min
Bit rate mode                            : Constant
Bit rate                                 : 224 kb/s
Channel(s)                               : 2 channels
Channel layout                           : L R
Sampling rate                            : 48.0 kHz
Frame rate                               : 31.250 FPS (1536 SPF)
Compression mode                         : Lossy
Stream size                              : 166 MiB (2%)
Language                                 : English
Service kind                             : Complete Main
Default                                  : No
Forced                                   : No

Text #1
ID                                       : 4
Format                                   : UTF-8
Codec ID                                 : S_TEXT/UTF8
Codec ID/Info                            : UTF-8 Plain Text
Duration                                 : 1 h 38 min
Bit rate                                 : 63 b/s
Count of elements                        : 1126
Stream size                              : 45.9 KiB (0%)
Title                                    : ViruseProject
Language                                 : Russian
Default                                  : No
Forced                                   : No

Text #2
ID                                       : 5
Format                                   : UTF-8
Codec ID                                 : S_TEXT/UTF8
Codec ID/Info                            : UTF-8 Plain Text
Duration                                 : 1 h 39 min
Bit rate                                 : 48 b/s
Count of elements                        : 1287
Stream size                              : 35.6 KiB (0%)
Title                                    : English
Language                                 : English
Default                                  : No
Forced                                   : No
YouTube Video:   
Category:Movies
Language:Russian  Russian
Total Size:10.08 GB
Info Hash:CD3C43F448F210E43747D8C9EF988919E3B7664A
Added By:viruse UploaderTV Uploader
Date Added:2021-11-23 23:24:14
Torrent Status:Torrent Verified by Prom3th3uS Super AdministratorMovie PirateVIP on 23rd November, 2021


Ratings:Not Yet Rated (Log in to rate it)


Tracker:
udp://opentor.org:2710/announce

This Torrent also has backup trackers
URLSeedersLeechersCompleted
udp://opentor.org:2710/announce146128126
udp://tracker.torrent.eu.org:451/announce137115107
udp://tracker.cyberia.is:6969/announce000
udp://exodus.desync.com:6969/announce144110134
udp://tracker.moeking.me:6969/announce639317
udp://tracker.opentrackr.org:1337/announce897389
udp://tracker.tiny-vps.com:6969/announce3696134
udp://open.stealth.si:80/announce147122128
udp://tracker.iamhansen.xyz:2000/announce000
udp://tracker.theoks.net:6969/announce14611976
udp://retracker.lanta-net.ru:2710/announce11411673
udp://open.demonii.si:1337/announce000
udp://tracker.uw0.xyz:6969/announce000
udp://ipv4.tracker.harry.lu:80/announce25770
udp://tracker.coppersurfer.tk:6969/announce000


File List: 





Comments
No comments still posted