Download Encounter 2021 HDRip XviD B4ND1T69 torrent - GloDLS
Login
Username:
Password:
Remember Me:
[Signup]
[Recover Account]
Friends
Angie Torrents
Friendly Site

Pirateiro
Friendly site

Free Courses Online
Friendly site

ETTV
Friendly site

ProStyleX
Friendly site

KaranPC
Friendly site

P2PDL.com
Friendly site

OneHack
Friendly site

IGGGames
Friendly site

HTML tutorial
Torrent Details For "Encounter 2021 HDRip XviD B4ND1T69"

Encounter 2021 HDRip XviD B4ND1T69

To download this torrent, you need a BitTorrent client: Vuze or BTGuard
Download this torrent
Download using Magnet Link

Health:
Seeds: 959
Leechers: 461
Completed: 3,117 
Last Checked: 13-01-2022 17:36:51

Uploader Reputation points : 1348





Write a Review for the Uploader:   0   Say Thanks with one good review:
Share on Facebook


Details
Name:Encounter 2021 HDRip XviD B4ND1T69
Description:
Encounter.2021.HDRip.XviD.B4ND1T69



Director: Michael Pearce
Writers: Joe Barton, Michael Pearce
Stars: Riz Ahmed, Octavia Spencer, Lucian-River Chauhan

Plot/Story:
Two brothers embark on a journey with their father, who is trying to protect them from an alien threat.

General
Complete name               : Encounter.2021.HDRip.XviD.B4ND1T69.avi
Format                      : AVI
Format/Info                 : Audio Video Interleave
File size                   : 745 MiB
Duration                    : 1 h 48 min
Overall bit rate            : 958 kb/s
Subtitles                   : Yes...Included(HI)

Video
ID                          : 0
Format                      : MPEG-4 Visual
Format profile              : Advanced [email protected]
Format settings, BVOP       : 2
Format settings, QPel       : No
Format settings, GMC        : No warppoints
Format settings, Matrix     : Default (H.263)
Codec ID                    : XVID
Codec ID/Hint               : XviD
Duration                    : 1 h 48 min
Bit rate                    : 817 kb/s
Width                       : 720 pixels
Height                      : 304 pixels
Display aspect ratio        : 2.35:1
Frame rate                  : 24.000 FPS
Color space                 : YUV
Chroma subsampling          : 4:2:0
Bit depth                   : 8 bits
Scan type                   : Progressive
Compression mode            : Lossy
Bits/(Pixel*Frame)          : 0.155
Stream size                 : 635 MiB (85%)
Writing library             : XviD 64

Audio
ID                          : 1
Format                      : MPEG Audio
Format version              : Version 1
Format profile              : Layer 3
Codec ID                    : 55
Codec ID/Hint               : MP3
Duration                    : 1 h 48 min
Bit rate mode               : Constant
Bit rate                    : 128 kb/s
Channel(s)                  : 2 channels
Sampling rate               : 48.0 kHz
Compression mode            : Lossy
Stream size                 : 99.6 MiB (13%)
Alignment                   : Aligned on interleaves
Interleave, duration        : 24  ms (0.58 video frame)

Screenshots:










Please Seed For As Long As Possible
Or At Least 1:1 Ratio...Thanks
Enjoy Peeps
YouTube Video:   
Category:Movies
Language:English  English
Total Size:745.03 MB
Info Hash:387C8FE640110A0E3A91CA62C898A5296425DD6D
Added By:B4ND1T69 Verified UploaderMovie Pirate
Date Added:2022-01-13 05:58:11
Torrent Status:Torrent Verified


Ratings:Not Yet Rated (Log in to rate it)


Tracker:
udp://tracker.opentrackr.org:1337/announce

This Torrent also has backup trackers
URLSeedersLeechersCompleted
udp://tracker.opentrackr.org:1337/announce11364418
udp://tracker2.dler.com:80/announce171512
udp://tracker.moeking.me:6969/announce834334
udp://9.rarbg.to:2850/announce8232575
udp://code2chicken.nl:6969/announce7032202
udp://opentor.org:2710/announce8039186
udp://exodus.desync.com:6969/announce7332200
udp://explodie.org:6969/announce42290
udp://tracker.zerobytes.xyz:1337/announce8534235
udp://9.rarbg.to:2950/announce8232575
udp://open.stealth.si:80/announce7736242
udp://retracker.netbynet.ru:2710/announce000
udp://tracker.torrent.eu.org:451/announce7437217
udp://fe.dealclub.de:6969/announce8136221
udp://p4p.arenabg.com:1337/announce000


File List: 





Comments

[Report] Posted: 17-01-2022 at 06:27:06
markama

avatar

profile message
Thx