Download The Trick (2021) [Hindi Dub] 720p WEB-DLRip Saicord torrent - GloDLS
HTML tutorial
Torrent Details For "The Trick (2021) [Hindi Dub] 720p WEB-DLRip Saicord"

The Trick (2021) [Hindi Dub] 720p WEB-DLRip Saicord

To download this torrent, you need a BitTorrent client: Vuze or BTGuard
Download this torrent
Download using Magnet Link

Health:
Seeds: 0
Leechers: 0
Completed:
Last Checked: 25-11-2021 18:02:09

Uploader Reputation points : 5499





Write a Review for the Uploader:   5   Say Thanks with one good review:
Share on Facebook


Details
Name:The Trick (2021) [Hindi Dub] 720p WEB-DLRip Saicord
Description:


https://www.imdb.com/title/tt14876294






Video
ID                             : 1
Format                         : AVC
Format/Info                    : Advanced Video Codec
Format profile                 : [email protected]
Format settings                : CABAC / 1 Ref Frames
Format settings, CABAC         : Yes
Format settings, Reference fra : 1 frame
Codec ID                       : V_MPEG4/ISO/AVC
Duration                       : 1 h 30 min
Bit rate                       : 1 948 kb/s
Width                          : 1 280 pixels
Height                         : 720 pixels
Display aspect ratio           : 16:9
Frame rate mode                : Constant
Frame rate                     : 25.000 FPS
Color space                    : YUV
Chroma subsampling             : 4:2:0
Bit depth                      : 8 bits
Scan type                      : Progressive
Bits/(Pixel*Frame)             : 0.085
Stream size                    : 1.24 GiB (91%)
Default                        : Yes
Forced                         : No

Audio
ID                             : 2
Format                         : AAC Main
Format/Info                    : Advanced Audio Codec
Codec ID                       : A_AAC-1
Duration                       : 1 h 30 min
Bit rate                       : 192 kb/s
Channel(s)                     : 2 channels
Channel layout                 : L R
Sampling rate                  : 48.0 kHz
Frame rate                     : 46.875 FPS (1024 SPF)
Compression mode               : Lossy
Stream size                    : 126 MiB (9%)
Language                       : Hindi
Default                        : No
Forced                         : No
YouTube Video:   
Category:Movies
Language:Hindi  Hindi
Total Size:1.36 GB
Info Hash:7199CED01109CF35D4B54E4F963AC50D99BA5F8D
Added By:Saicord Verified Uploader
Date Added:2021-11-26 02:02:06
Torrent Status:Torrent Verified


Ratings:Not Yet Rated (Log in to rate it)


Tracker:
udp://opentor.org:2710/announce

This Torrent also has backup trackers
URLSeedersLeechersCompleted
udp://opentor.org:2710/announce000
udp://tracker.torrent.eu.org:451/announce000
udp://tracker.cyberia.is:6969/announce000
udp://exodus.desync.com:6969/announce000
udp://tracker.moeking.me:6969/announce000
udp://tracker.opentrackr.org:1337/announce000
udp://tracker.tiny-vps.com:6969/announce000
udp://open.stealth.si:80/announce000
udp://tracker.iamhansen.xyz:2000/announce000
udp://tracker.theoks.net:6969/announce000
udp://retracker.lanta-net.ru:2710/announce000
udp://open.demonii.si:1337/announce000
udp://tracker.uw0.xyz:6969/announce000
udp://ipv4.tracker.harry.lu:80/announce000
udp://tracker.coppersurfer.tk:6969/announce000


File List: 





Comments
No comments still posted