Download The Ring (2002) 480p BluRay Dual Audio [Hindi ORG DD 2 0 + English] x264 AAC ESub By Full4Movies mkv torrent - GloDLS
Login
Username:
Password:
Remember Me:
[Signup]
[Recover Account]
Friends
Angie Torrents
Friendly Site

Pirateiro
Friendly site

Free Courses Online
Friendly site

ETTV
Friendly site

ProStyleX
Friendly site

KaranPC
Friendly site

P2PDL.com
Friendly site

OneHack
Friendly site

IGGGames
Friendly site

HTML tutorial
Torrent Details For "The Ring (2002) 480p BluRay Dual Audio [Hindi ORG DD 2 0 + English] x264 AAC ESub By ..."

The Ring (2002) 480p BluRay Dual Audio [Hindi ORG DD 2 0 + English] x264 AAC ESub By ...

To download this torrent, you need a BitTorrent client: Vuze or BTGuard
Download this torrent
Download using Magnet Link

Health:
Seeds: 7
Leechers: 7
Completed: 11 
Last Checked: 14-10-2021 05:55:37

Uploader Reputation points : 6790





Write a Review for the Uploader:   5   Say Thanks with one good review:
Share on Facebook


Details
Name:The Ring (2002) 480p BluRay Dual Audio [Hindi ORG DD 2 0 + English] x264 AAC ESub By ...
Description:


Visit Us = https://www.full4movies.site/



General
Complete name                  : The Ring (2002) 480p BluRay Dual Audio [Hindi ORG DD 2.0 + English] x264 AAC ESub By Full4Movies.mkv
Format                         : Matroska
Format version                 : Version 4
File size                      : 398 MiB
Duration                       : 1 h 55 min
Overall bit rate               : 482 kb/s
Encoded date                   : UTC 2021-10-13 09:49:00
Writing application            : mkvmerge v8.3.0 ('Over the Horizon') 64bit
Writing library                : libebml v1.3.1 + libmatroska v1.4.2
Attachments                    : +Full4Movies.jpg

Video
ID                             : 1
Format                         : AVC
Format/Info                    : Advanced Video Codec
Format profile                 : [email protected]
Format settings                : CABAC / 4 Ref Frames
Format settings, CABAC         : Yes
Format settings, Reference fra : 4 frames
Codec ID                       : V_MPEG4/ISO/AVC
Duration                       : 1 h 55 min
Bit rate                       : 400 kb/s
Width                          : 720 pixels
Height                         : 388 pixels
Display aspect ratio           : 1.85:1
Frame rate mode                : Constant
Frame rate                     : 23.976 (24000/1001) FPS
Color space                    : YUV
Chroma subsampling             : 4:2:0
Bit depth                      : 8 bits
Scan type                      : Progressive
Bits/(Pixel*Frame)             : 0.060
Stream size                    : 330 MiB (83%)
Writing library                : x264 core 142 r2479 dd79a61
Default                        : Yes
Forced                         : No
Color range                    : Limited
Color primaries                : BT.709
Transfer characteristics       : BT.709
Matrix coefficients            : BT.709

Audio #1
ID                             : 2
Format                         : AAC LC SBR
Format/Info                    : Advanced Audio Codec Low Complexity with Spectral Band Replication
Commercial name                : HE-AAC
Format settings                : NBC
Codec ID                       : A_AAC-5
Duration                       : 1 h 55 min
Bit rate                       : 40.0 kb/s
Channel(s)                     : 2 channels
Channel layout                 : L R
Sampling rate                  : 48.0 kHz
Frame rate                     : 23.438 FPS (2048 SPF)
Compression mode               : Lossy
Delay relative to video        : -105 ms
Stream size                    : 33.0 MiB (8%)
Language                       : Hindi
Default                        : Yes
Forced                         : No
Audio #2
ID                             : 3
Format                         : AAC LC SBR
Format/Info                    : Advanced Audio Codec Low Complexity with Spectral Band Replication
Commercial name                : HE-AAC
Format settings                : NBC
Codec ID                       : A_AAC-5
Duration                       : 1 h 55 min
Bit rate                       : 40.0 kb/s
Channel(s)                     : 2 channels
Channel layout                 : L R
Sampling rate                  : 48.0 kHz
Frame rate                     : 23.438 FPS (2048 SPF)
Compression mode               : Lossy
Delay relative to video        : -105 ms
Stream size                    : 33.0 MiB (8%)
Language                       : English
Default                        : No
Forced                         : No

Text
ID                             : 4
Format                         : ASS
Codec ID                       : S_TEXT/ASS
Codec ID/Info                  : Advanced Sub Station Alpha
Duration                       : 1 h 46 min
Bit rate                       : 57 b/s
Count of elements              : 884
Compression mode               : Lossless
Stream size                    : 44.6 KiB (0%)
Language                       : English
Default                        : No
Forced                         : No

Screen Shoots
YouTube Video:
Category:Movies
Language:Dubs/Dual Audio
Total Size:397.58 MB
Info Hash:F7E94684262F2F1541673AD74771DCA3BE543AE9
Added By:india4movie Verified Uploader
Date Added:2021-10-14 11:15:01
Torrent Status:Torrent Verified


Ratings:Not Yet Rated (Log in to rate it)


Tracker:
udp://tracker.opentrackr.org:1337/announce

This Torrent also has backup trackers
URLSeedersLeechersCompleted
udp://tracker.opentrackr.org:1337/announce112
udp://9.rarbg.me:2790/announce112
udp://9.rarbg.to:2800/announce112
http://tracker.dler.org:6969/announce010
udp://tracker.internetwarriors.net:1337/announce101
udp://open.stealth.si:80/announce000
udp://fasttracker.foreverpirates.co:6969/announce000
udp://tracker.uw0.xyz:6969/announce000
udp://tracker.dler.org:6969/announce000
udp://opentor.org:2710/announce101
udp://open.stealth.si:80/announce000
udp://9.rarbg.me:2980/announce112
udp://tracker.openbittorrent.com:80/announce000


File List: 





Comments
No comments still posted