Download The Others (2001) 720p HDRip [Hindi Dubbed + English] x264 AAC ESub By Full4Movies mkv torrent - GloDLS
Torrent Details For "The Others (2001) 720p HDRip [Hindi Dubbed + English] x264 AAC ESub By Full4Movies mk..."

The Others (2001) 720p HDRip [Hindi Dubbed + English] x264 AAC ESub By Full4Movies mk...

To download this torrent, you need a BitTorrent client: Vuze or BTGuard
Download this torrent
Download using Magnet Link

Health:
Seeds: 59
Leechers: 23
Completed: 71 
Last Checked: 13-01-2021 16:39:40

Uploader Reputation points : 4205
External: Torrent






Write a Review for the Uploader:   5   Say Thanks with one good review:
Share on Facebook


Details
Name:The Others (2001) 720p HDRip [Hindi Dubbed + English] x264 AAC ESub By Full4Movies mk...
Description:


Visit Us = https://full4movies.xyz/



General
Complete name                  : The Others (2001) 720p HDRip [Hindi Dubbed + English] x264 AAC ESub By Full4Movies.mkv
Format                         : Matroska
Format version                 : Version 4
File size                      : 910 MiB
Duration                       : 1 h 44 min
Overall bit rate               : 1 217 kb/s
Encoded date                   : UTC 2021-01-13 06:30:48
Writing application            : mkvmerge v8.0.0 ('Til The Day That I Die') 32bit
Writing library                : libebml v1.3.1 + libmatroska v1.4.2

Video
ID                             : 1
Format                         : AVC
Format/Info                    : Advanced Video Codec
Format profile                 : [email protected]
Format settings                : CABAC / 4 Ref Frames
Format settings, CABAC         : Yes
Format settings, Reference fra : 4 frames
Codec ID                       : V_MPEG4/ISO/AVC
Duration                       : 1 h 44 min
Bit rate                       : 950 kb/s
Width                          : 1 280 pixels
Height                         : 694 pixels
Display aspect ratio           : 1.85:1
Frame rate mode                : Constant
Frame rate                     : 23.976 (24000/1001) FPS
Color space                    : YUV
Chroma subsampling             : 4:2:0
Bit depth                      : 8 bits
Scan type                      : Progressive
Bits/(Pixel*Frame)             : 0.045
Stream size                    : 710 MiB (78%)
Writing library                : x264 core 142 r2479 dd79a61
Default                        : Yes
Forced                         : No
Color range                    : Limited
Color primaries                : BT.709
Transfer characteristics       : BT.709
Matrix coefficients            : BT.709

Audio #1
ID                             : 2
Format                         : AAC LC
Format/Info                    : Advanced Audio Codec Low Complexity
Codec ID                       : A_AAC-2
Duration                       : 1 h 44 min
Bit rate                       : 128 kb/s
Channel(s)                     : 2 channels
Channel layout                 : L R
Sampling rate                  : 22.05 kHz
Frame rate                     : 21.533 FPS (1024 SPF)
Compression mode               : Lossy
Delay relative to video        : -46 ms
Stream size                    : 95.9 MiB (11%)
Language                       : Hindi
Default                        : Yes
Forced                         : No

Audio #2
ID                             : 3
Format                         : AAC LC
Format/Info                    : Advanced Audio Codec Low Complexity
Codec ID                       : A_AAC-2
Duration                       : 1 h 44 min
Bit rate                       : 128 kb/s
Channel(s)                     : 2 channels
Channel layout                 : L R
Sampling rate                  : 22.05 kHz
Frame rate                     : 21.533 FPS (1024 SPF)
Compression mode               : Lossy
Delay relative to video        : -46 ms
Stream size                    : 95.8 MiB (11%)
Language                       : English
Default                        : No
Forced                         : No

Text #1
ID                             : 4
Format                         : PGS
Muxing mode                    : zlib
Codec ID                       : S_HDMV/PGS
Codec ID/Info                  : Picture based subtitle format used on BDs/HD-DVDs
Duration                       : 1 h 39 min
Bit rate                       : 9 712 b/s
Count of elements              : 2448
Stream size                    : 6.89 MiB (1%)
Title                          : ESub
Language                       : English
Default                        : No
Forced                         : No

Screen Shoots
YouTube Video:
Category:Movies
Language:Dubs/Dual Audio
Total Size:909.86 MB
Info Hash:F595A91ACCAD64E547508B5B16353CD90B2A5AE9
Added By:india4movie Verified Uploader
Date Added:2021-01-13 16:19:30
Torrent Status:Torrent Verified


Ratings:Not Yet Rated (Log in to rate it)


Tracker:
udp://tracker.opentrackr.org:1337/announce

This Torrent also has backup trackers
URLSeedersLeechersCompleted
udp://tracker.opentrackr.org:1337/announce9313
udp://tracker.cyberia.is:6969/announce9211
udp://9.rarbg.me:2980/announce425
udp://open.stealth.si:80/announce000
udp://exodus.desync.com:6969/announce427
udp://tracker.moeking.me:6969/announce411
udp://explodie.org:6969/announce110
udp://tracker.openbittorrent.com:80/announce9313
udp://inferno.demonoid.is:3391/announce424
udp://tracker.torrent.eu.org:451/announce000
udp://ipv4.tracker.harry.lu:80/announce110
udp://tracker.uw0.xyz:6969/announce525
udp://tracker.coppersurfer.tk:6969/announce000
udp://exodus.desync.com:6969/announce427
udp://tracker.tiny-vps.com:6969/announce525


File List: 





Comments
No comments still posted