Download The Others (2001) 480p HDRip [Hindi Dubbed + English] x264 AAC ESub - By Full4Movies mkv torrent - GloDLS
Torrent Details For "The Others (2001) 480p HDRip [Hindi Dubbed + English] x264 AAC ESub - By Full4Movies ..."

The Others (2001) 480p HDRip [Hindi Dubbed + English] x264 AAC ESub - By Full4Movies ...

To download this torrent, you need a BitTorrent client: Vuze or BTGuard
Download this torrent
Download using Magnet Link

Health:
Seeds: 11
Leechers: 9
Completed:
Last Checked: 13-01-2021 16:40:57

Uploader Reputation points : 4263
External: Torrent






Write a Review for the Uploader:   5   Say Thanks with one good review:
Share on Facebook


Details
Name:The Others (2001) 480p HDRip [Hindi Dubbed + English] x264 AAC ESub - By Full4Movies ...
Description:


Visit Us = https://full4movies.xyz/



General
Complete name                  : The Others (2001) 480p HDRip [Hindi Dubbed + English] x264 AAC ESub - By Full4Movies.mkv
Format                         : Matroska
Format version                 : Version 4
File size                      : 342 MiB
Duration                       : 1 h 44 min
Overall bit rate               : 457 kb/s
Encoded date                   : UTC 2021-01-13 06:29:27
Writing application            : mkvmerge v8.0.0 ('Til The Day That I Die') 32bit
Writing library                : libebml v1.3.1 + libmatroska v1.4.2

Video
ID                             : 1
Format                         : AVC
Format/Info                    : Advanced Video Codec
Format profile                 : [email protected]
Format settings                : CABAC / 4 Ref Frames
Format settings, CABAC         : Yes
Format settings, Reference fra : 4 frames
Codec ID                       : V_MPEG4/ISO/AVC
Duration                       : 1 h 44 min
Bit rate                       : 380 kb/s
Width                          : 720 pixels
Height                         : 390 pixels
Display aspect ratio           : 1.85:1
Frame rate mode                : Constant
Frame rate                     : 23.976 (24000/1001) FPS
Color space                    : YUV
Chroma subsampling             : 4:2:0
Bit depth                      : 8 bits
Scan type                      : Progressive
Bits/(Pixel*Frame)             : 0.056
Stream size                    : 286 MiB (84%)
Writing library                : x264 core 142 r2479 dd79a61
Default                        : Yes
Forced                         : No
Color range                    : Limited
Color primaries                : BT.709
Transfer characteristics       : BT.709
Matrix coefficients            : BT.709

Audio #1
ID                             : 2
Format                         : AAC LC SBR
Format/Info                    : Advanced Audio Codec Low Complexity with Spectral Band Replication
Commercial name                : HE-AAC
Format settings                : NBC
Codec ID                       : A_AAC-5
Duration                       : 1 h 44 min
Bit rate                       : 32.0 kb/s
Channel(s)                     : 2 channels
Channel layout                 : L R
Sampling rate                  : 22.05 kHz
Frame rate                     : 10.767 FPS (2048 SPF)
Compression mode               : Lossy
Delay relative to video        : -229 ms
Stream size                    : 23.9 MiB (7%)
Language                       : Hindi
Default                        : Yes
Forced                         : No

Audio #2
ID                             : 3
Format                         : AAC LC SBR
Format/Info                    : Advanced Audio Codec Low Complexity with Spectral Band Replication
Commercial name                : HE-AAC
Format settings                : NBC
Codec ID                       : A_AAC-5
Duration                       : 1 h 44 min
Bit rate                       : 32.0 kb/s
Channel(s)                     : 2 channels
Channel layout                 : L R
Sampling rate                  : 22.05 kHz
Frame rate                     : 10.767 FPS (2048 SPF)
Compression mode               : Lossy
Delay relative to video        : -229 ms
Stream size                    : 23.9 MiB (7%)
Language                       : English
Default                        : No
Forced                         : No

Text #1
ID                             : 4
Format                         : PGS
Muxing mode                    : zlib
Codec ID                       : S_HDMV/PGS
Codec ID/Info                  : Picture based subtitle format used on BDs/HD-DVDs
Duration                       : 1 h 39 min
Bit rate                       : 9 712 b/s
Count of elements              : 2448
Stream size                    : 6.89 MiB (2%)
Title                          : ESub
Language                       : English
Default                        : No
Forced                         : No

Screen Shoots
YouTube Video:
Category:Movies
Language:Dubs/Dual Audio
Total Size:341.86 MB
Info Hash:B9C81C50D6F4A5798A84B95F37890BF06F5771E0
Added By:india4movie Verified Uploader
Date Added:2021-01-13 16:17:14
Torrent Status:Torrent Verified


Ratings:Not Yet Rated (Log in to rate it)


Tracker:
udp://tracker.opentrackr.org:1337/announce

This Torrent also has backup trackers
URLSeedersLeechersCompleted
udp://tracker.opentrackr.org:1337/announce000
udp://tracker.cyberia.is:6969/announce112
udp://9.rarbg.me:2980/announce214
udp://open.stealth.si:80/announce110
udp://exodus.desync.com:6969/announce011
udp://tracker.moeking.me:6969/announce100
udp://explodie.org:6969/announce000
udp://tracker.openbittorrent.com:80/announce112
udp://inferno.demonoid.is:3391/announce110
udp://tracker.torrent.eu.org:451/announce110
udp://ipv4.tracker.harry.lu:80/announce100
udp://tracker.uw0.xyz:6969/announce110
udp://tracker.coppersurfer.tk:6969/announce000
udp://exodus.desync.com:6969/announce011
udp://tracker.tiny-vps.com:6969/announce110


File List: 





Comments
No comments still posted