Download The Island 2005 BRRip 2160p UHD SDR DD5 1 gerald99 torrent - GloDLS
Torrent Details For "The Island 2005 BRRip 2160p UHD SDR DD5 1 gerald99"

The Island 2005 BRRip 2160p UHD SDR DD5 1 gerald99

To download this torrent, you need a BitTorrent client: Vuze or BTGuard
Download this torrent
Download using Magnet Link

Health:
Seeds: 291
Leechers: 124
Completed: 393 
Last Checked: 19-06-2022 20:00:24

Uploader Reputation points : 1097





Write a Review for the Uploader:   10   Say Thanks with one good review:
Share on Facebook


Details
Name:The Island 2005 BRRip 2160p UHD SDR DD5 1 gerald99
Description:

Topaz AI Upscale

https://www.imdb.com/title/tt0399201/
2005 PG-13 2h16m Action Sci-Fi Thriller 6.8/10
Stars Scarlett Johansson Ewan McGregor Djimon Hounsou
Taglines Your time will come...

Storyline
Set in a dystopian future, a group of people work in a facility, essentially as slaves. They do have an incentive though - a regular lottery is held and one of them gets to leave the facility and its restrictions and move to The Island, a paradise. Lincoln Six Echo is one of the workers in the facility and he is infatuated with Jordan Two Delta. His life is fairly uneventful and mundane until Jordan Two Delta gets selected to go to The Island. Then Lincoln starts to discover the truth about the facility and The Island.

Format                                   : Matroska
Format version                           : Version 4
File size                                : 8.40 GiB
Duration                                 : 2 h 16 min
Overall bit rate                         : 8 833 kb/s
Movie name                               : The Island
Encoded date                             : UTC 2022-06-18 23:10:14
Writing application                      : mkvmerge v67.0.0 ('Under Stars') 64-bit
Writing library                          : libebml v1.4.2 + libmatroska v1.6.4

Video
ID                                       : 1
Format                                   : HEVC
Format/Info                              : High Efficiency Video Coding
Format profile                           : Main [email protected]@Main
Codec ID                                 : V_MPEGH/ISO/HEVC
Duration                                 : 2 h 16 min
Bit rate                                 : 8 172 kb/s
Width                                    : 3 840 pixels
Height                                   : 2 160 pixels
Display aspect ratio                     : 16:9
Frame rate mode                          : Constant
Frame rate                               : 23.976 (24000/1001) FPS
Color space                              : YUV
Chroma subsampling                       : 4:2:0
Bit depth                                : 10 bits
Bits/(Pixel*Frame)                       : 0.041
Stream size                              : 7.77 GiB (93%)
Title                                    : The Island
Default                                  : Yes
Forced                                   : No
Color range                              : Limited
Color primaries                          : BT.709
Transfer characteristics                 : BT.709
Matrix coefficients                      : BT.709

Audio
ID                                       : 2
Format                                   : AC-3
Format/Info                              : Audio Coding 3
Commercial name                          : Dolby Digital
Codec ID                                 : A_AC3
Duration                                 : 2 h 16 min
Bit rate mode                            : Constant
Bit rate                                 : 640 kb/s
Channel(s)                               : 6 channels
Channel layout                           : L R C LFE Ls Rs
Sampling rate                            : 48.0 kHz
Frame rate                               : 31.250 FPS (1536 SPF)
Bit depth                                : 16 bits
Compression mode                         : Lossy
Stream size                              : 623 MiB (7%)
Title                                    : Dolby Digital 5.1
Language                                 : English
Service kind                             : Complete Main
Default                                  : Yes
Forced                                   : No

Text #1
ID                                       : 3
Format                                   : PGS
Muxing mode                              : zlib
Codec ID                                 : S_HDMV/PGS
Codec ID/Info                            : Picture based subtitle format used on BDs/HD-DVDs
Duration                                 : 2 h 3 min
Bit rate                                 : 33.0 kb/s
Count of elements                        : 2958
Stream size                              : 29.2 MiB (0%)
Language                                 : English
Default                                  : No
Forced                                   : No

Text #2
ID                                       : 4
Format                                   : PGS
Muxing mode                              : zlib
Codec ID                                 : S_HDMV/PGS
Codec ID/Info                            : Picture based subtitle format used on BDs/HD-DVDs
Duration                                 : 2 h 5 min
Bit rate                                 : 36.2 kb/s
Count of elements                        : 3346
Stream size                              : 32.5 MiB (0%)
Language                                 : English
Default                                  : No
Forced                                   : No

YouTube Video:   
Category:Movies
Language:English  English
Total Size:8.40 GB
Info Hash:36322951194E085C281A4E50E0F9B319EB082673
Added By:gerald99 VIP
Date Added:2022-06-19 22:54:50
Torrent Status:Torrent Verified


Ratings:Not Yet Rated (Log in to rate it)


Tracker:
udp://tracker.opentrackr.org:1337/announce

This Torrent also has backup trackers
URLSeedersLeechersCompleted
udp://tracker.opentrackr.org:1337/announce441465
udp://fe.dealclub.de:6969/announce20926
udp://bt2.archive.org:6969/announce1174
udp://movies.zsw.ca:6969/announce21824
udp://tracker.zerobytes.xyz:1337/announce20921
udp://tracker.0x.tf:6969/announce20922
udp://tracker.altrosky.nl:6969/announce20926
udp://open.stealth.si:80/announce251562
udp://tracker.torrent.eu.org:451/announce291248
udp://ipv4.tracker.harry.lu:80/announce351256
udp://p4p.arenabg.com:1337/announce1470
udp://tracker.moeking.me:6969/announce321339
udp://tracker.dler.org:6969/announce000


File List: 





Comments
No comments still posted