Download The Ambushers 1967 HDRip XviD B4ND1T69 torrent - GloDLS
Login
Username:
Password:
Remember Me:
[Signup]
[Recover Account]
Friends
Angie Torrents
Friendly Site

Pirateiro
Friendly site

Free Courses Online
Friendly site

ETTV
Friendly site

ProStyleX
Friendly site

KaranPC
Friendly site

P2PDL.com
Friendly site

OneHack
Friendly site

IGGGames
Friendly site

Torrent Details For "The Ambushers 1967 HDRip XviD B4ND1T69"

The Ambushers 1967 HDRip XviD B4ND1T69

To download this torrent, you need a BitTorrent client: Vuze or BTGuard
Download this torrent
Download using Magnet Link

Health:
Seeds: 42
Leechers: 0
Completed: 652 
Last Checked: 12-05-2021 04:20:56

Uploader Reputation points : 778
External: Torrent






Write a Review for the Uploader:   0   Say Thanks with one good review:
Share on Facebook


Details
Name:The Ambushers 1967 HDRip XviD B4ND1T69
Description:
The.Ambushers.1967.HDRip.XviD.B4ND1T69

[img]https://www.imdb.com/title/tt0062657/mediaviewer/rm1703288576?ref_=tt_ov_i[/img]

Director: Henry Levin
Writers: Donald Hamilton (book), Herbert Baker (screenplay)
Stars: Dean Martin, Senta Berger, Janice Rule

Plot/Story:
Secret agent Matt Helm must battle foreign spies and a rogue nation's exiled ruler in order to recover a hijacked U.S. government experimental flying saucer.

General
Complete name               : The.Ambushers.1967.HDRip.XviD.B4ND1T69.avi
Format                      : AVI
Format/Info                 : Audio Video Interleave
File size                   : 1.24 GiB
Duration                    : 1 h 41 min
Overall bit rate            : 1 740 kb/s
Subtitles                   : Yes...Included(HI)

Video
ID                          : 0
Format                      : MPEG-4 Visual
Format profile              : Advanced [email protected]
Format settings, BVOP       : 2
Format settings, QPel       : No
Format settings, GMC        : No warppoints
Format settings, Matrix     : Default (H.263)
Codec ID                    : XVID
Codec ID/Hint               : XviD
Duration                    : 1 h 41 min
Bit rate                    : 1 599 kb/s
Width                       : 720 pixels
Height                      : 384 pixels
Display aspect ratio        : 1.85:1
Frame rate                  : 23.976 (23976/1000) FPS
Color space                 : YUV
Chroma subsampling          : 4:2:0
Bit depth                   : 8 bits
Scan type                   : Progressive
Compression mode            : Lossy
Bits/(Pixel*Frame)          : 0.241
Stream size                 : 1.14 GiB (92%)
Writing library             : XviD 64

Audio
ID                          : 1
Format                      : MPEG Audio
Format version              : Version 1
Format profile              : Layer 3
Codec ID                    : 55
Codec ID/Hint               : MP3
Duration                    : 1 h 41 min
Bit rate mode               : Constant
Bit rate                    : 128 kb/s
Channel(s)                  : 2 channels
Sampling rate               : 48.0 kHz
Compression mode            : Lossy
Stream size                 : 93.4 MiB (7%)
Alignment                   : Aligned on interleaves
Interleave, duration        : 24  ms (0.58 video frame)

Screenshots:










Please Seed For As Long As Possible
Or At Least 1:1 Ratio...Thanks
Enjoy Peeps
YouTube Video:   
Category:Movies
Language:English  English
Total Size:1.24 GB
Info Hash:93333D920FE34E38100493AC3D5A481D73223DDC
Added By:B4ND1T69 Verified UploaderMovie Pirate
Date Added:2021-05-04 23:10:41
Torrent Status:Torrent Verified


Ratings:Not Yet Rated (Log in to rate it)


Tracker:
udp://tracker.opentrackr.org:1337/announce

This Torrent also has backup trackers
URLSeedersLeechersCompleted
udp://tracker.opentrackr.org:1337/announce30180
udp://exodus.desync.com:6969/announce3086
udp://open.demonii.si:1337/announce000
udp://9.rarbg.to:2750/announce400
udp://open.stealth.si:80/announce5079
udp://tracker.uw0.xyz:6969/announce4089
udp://tracker.tiny-vps.com:6969/announce300
udp://fasttracker.foreverpirates.co:6969/announce4051
udp://explodie.org:6969/announce300
udp://tracker.cyberia.is:6969/announce000
udp://ipv4.tracker.harry.lu:80/announce400
udp://opentracker.i2p.rocks:6969/announce40158
udp://tracker.moeking.me:6969/announce102
udp://opentor.org:2710/announce407
udp://tracker.dler.org:6969/announce000


File List: 





Comments
No comments still posted