Download Superman and Lois S02E01 WEB-DL XviD B4ND1T69 torrent - GloDLS
Login
Username:
Password:
Remember Me:
[Signup]
[Recover Account]
Friends
Angie Torrents
Friendly Site

Pirateiro
Friendly site

Free Courses Online
Friendly site

ETTV
Friendly site

ProStyleX
Friendly site

KaranPC
Friendly site

P2PDL.com
Friendly site

OneHack
Friendly site

IGGGames
Friendly site

HTML tutorial
Torrent Details For "Superman and Lois S02E01 WEB-DL XviD B4ND1T69"

Superman and Lois S02E01 WEB-DL XviD B4ND1T69

To download this torrent, you need a BitTorrent client: Vuze or BTGuard
Download this torrent
Download using Magnet Link

Health:
Seeds: 193
Leechers: 29
Completed: 682 
Last Checked: 12-01-2022 22:55:32

Uploader Reputation points : 1348





Write a Review for the Uploader:   0   Say Thanks with one good review:
Share on Facebook
TV Info

Superman & Lois

After years of facing megalomaniacal supervillains, monsters wreaking havoc on Metropolis, and alien invaders intent on wiping out the human race, The Man of Steel aka Clark Kent and Lois Lane come face to face with one of their greatest challenges ever - dealing with all the stress, pressures and complexities that come with being working parents in today's society.



Details
Name:Superman and Lois S02E01 WEB-DL XviD B4ND1T69
Description:
Superman.and.Lois.S02E01.WEB-DL.XviD.B4ND1T69



Creators: Greg Berlanti, Todd Helbing
Stars: Tyler Hoechlin, Elizabeth Tulloch, Alex Garfin

Plot/Story:
What Lies Beneath
Lois and Clark struggle as a couple while Chrissy adjusts to running The Smallville Gazette with Lois. Meanwhile, Kyle grows concerned over Lana's involvement with a new mayoral candidate

General
Complete name               : Superman.and.Lois.S02E01.WEB-DL.XviD.B4ND1T69.avi
Format                      : AVI
Format/Info                 : Audio Video Interleave
File size                   : 254 MiB
Duration                    : 42 min 12 s
Overall bit rate            : 843 kb/s
Subtitles                   : Yes...Included(HI)

Video
ID                          : 0
Format                      : MPEG-4 Visual
Format profile              : Advanced [email protected]
Format settings, BVOP       : 2
Format settings, QPel       : No
Format settings, GMC        : No warppoints
Format settings, Matrix     : Default (H.263)
Codec ID                    : XVID
Codec ID/Hint               : XviD
Duration                    : 42 min 12 s
Bit rate                    : 701 kb/s
Width                       : 640 pixels
Height                      : 288 pixels
Display aspect ratio        : 2.222
Frame rate                  : 23.976 (24000/1001) FPS
Color space                 : YUV
Chroma subsampling          : 4:2:0
Bit depth                   : 8 bits
Scan type                   : Progressive
Compression mode            : Lossy
Bits/(Pixel*Frame)          : 0.159
Stream size                 : 212 MiB (83%)
Writing library             : XviD 64

Audio
ID                          : 1
Format                      : MPEG Audio
Format version              : Version 1
Format profile              : Layer 3
Codec ID                    : 55
Codec ID/Hint               : MP3
Duration                    : 42 min 12 s
Bit rate mode               : Constant
Bit rate                    : 128 kb/s
Channel(s)                  : 2 channels
Sampling rate               : 48.0 kHz
Compression mode            : Lossy
Stream size                 : 38.6 MiB (15%)
Alignment                   : Aligned on interleaves
Interleave, duration        : 24  ms (0.58 video frame)

Screenshots:







Please Seed For As Long As Possible
Or At Least 1:1 Ratio...Thanks
Enjoy Peeps
YouTube Video:   
Category:TV
Language:English  English
Total Size:254.47 MB
Info Hash:E54852B1DCE489C05A34BB06B67816D30C32651B
Added By:B4ND1T69 Verified UploaderMovie Pirate
Date Added:2022-01-13 00:35:18
Torrent Status:Torrent Verified


Ratings:Not Yet Rated (Log in to rate it)


Tracker:
udp://tracker.opentrackr.org:1337/announce

This Torrent also has backup trackers
URLSeedersLeechersCompleted
udp://tracker.opentrackr.org:1337/announce284118
udp://tracker2.dler.com:80/announce301
udp://tracker.moeking.me:6969/announce911
udp://9.rarbg.to:2850/announce244168
udp://code2chicken.nl:6969/announce17363
udp://opentor.org:2710/announce22358
udp://exodus.desync.com:6969/announce17360
udp://explodie.org:6969/announce1340
udp://tracker.zerobytes.xyz:1337/announce21275
udp://9.rarbg.to:2950/announce000
udp://open.stealth.si:80/announce18273
udp://retracker.netbynet.ru:2710/announce000
udp://tracker.torrent.eu.org:451/announce000
udp://fe.dealclub.de:6969/announce21365
udp://p4p.arenabg.com:1337/announce000


File List: 





Comments
No comments still posted