Download Sunflower (2021) 1080p Season 1 EP (01-08) TRUE WEB-HDRip [Hindi + Telugu + Tamil] x264 AAC DD 2 0 ESub By Full4Movies torrent - GloDLS
Torrent Details For "Sunflower (2021) 1080p Season 1 EP (01-08) TRUE WEB-HDRip [Hindi + Telugu + Tamil] x2..."

Sunflower (2021) 1080p Season 1 EP (01-08) TRUE WEB-HDRip [Hindi + Telugu + Tamil] x2...

To download this torrent, you need a BitTorrent client: Vuze or BTGuard
Download this torrent
Download using Magnet Link

Health:
Seeds: 893
Leechers: 635
Completed: 2,402 
Last Checked: 12-06-2021 18:00:55

Uploader Reputation points : 5783
External: Torrent






Write a Review for the Uploader:   5   Say Thanks with one good review:
Share on Facebook


Details
Name:Sunflower (2021) 1080p Season 1 EP (01-08) TRUE WEB-HDRip [Hindi + Telugu + Tamil] x2...
Description:


Visit Us = https://www.full4movies.org/



General
Complete name                  : Sunflower (2021) 1080p Season 1 EP (01-08) TRUE WEB-HDRip [Hindi + Telugu + Tamil] x264 AAC DD 2.0 ESub By Full4Movies
Format                         : Matroska
Format version                 : Version 4 / Version 2
File size                      : 425 MiB
Duration                       : 42 min 41 s
Overall bit rate               : 1 392 kb/s
Encoded date                   : UTC 2021-06-11 10:59:22
Writing application            : mkvmerge v8.3.0 ('Over the Horizon') 64bit
Writing library                : libebml v1.3.1 + libmatroska v1.4.2
Attachments                    : 383845052472320.jpg

Video
ID                             : 1
Format                         : AVC
Format/Info                    : Advanced Video Codec
Format profile                 : [email protected]
Format settings, CABAC         : Yes
Format settings, RefFrames     : 4 frames
Codec ID                       : V_MPEG4/ISO/AVC
Duration                       : 42 min 41 s
Bit rate                       : 1 206 kb/s
Width                          : 1 920 pixels
Height                         : 960 pixels
Display aspect ratio           : 2.000
Frame rate mode                : Constant
Frame rate                     : 25.000 FPS
Color space                    : YUV
Chroma subsampling             : 4:2:0
Bit depth                      : 8 bits
Scan type                      : Progressive
Bits/(Pixel*Frame)             : 0.026
Stream size                    : 365 MiB (86%)
Writing library                : x264 core 157 r2935 545de2f
Default                        : Yes
Forced                         : No

Audio #1
ID                             : 2
Format                         : AAC
Format/Info                    : Advanced Audio Codec
Format profile                 : LC
Codec ID                       : A_AAC
Duration                       : 42 min 41 s
Bit rate                       : 64.0 kb/s
Channel(s)                     : 2 channels
Channel positions              : Front: L R
Sampling rate                  : 48.0 kHz
Frame rate                     : 46.875 FPS (1024 SPF)
Compression mode               : Lossy
Stream size                    : 19.5 MiB (5%)
Language                       : Hindi
Default                        : Yes
Forced                         : No

Audio #2
ID                             : 3
Format                         : AAC
Format/Info                    : Advanced Audio Codec
Format profile                 : LC
Codec ID                       : A_AAC
Duration                       : 42 min 41 s
Bit rate                       : 64.0 kb/s
Channel(s)                     : 2 channels
Channel positions              : Front: L R
Sampling rate                  : 48.0 kHz
Frame rate                     : 46.875 FPS (1024 SPF)
Compression mode               : Lossy
Stream size                    : 19.5 MiB (5%)
Language                       : Telugu
Default                        : No
Forced                         : No

Audio #3
ID                             : 4
Format                         : AAC
Format/Info                    : Advanced Audio Codec
Format profile                 : LC
Codec ID                       : A_AAC
Duration                       : 42 min 41 s
Bit rate                       : 64.0 kb/s
Channel(s)                     : 2 channels
Channel positions              : Front: L R
Sampling rate                  : 48.0 kHz
Frame rate                     : 46.875 FPS (1024 SPF)
Compression mode               : Lossy
Stream size                    : 19.5 MiB (5%)
Language                       : Tamil
Default                        : No
Forced                         : No

Text #1
ID                             : 5
Format                         : UTF-8
Codec ID                       : S_TEXT/UTF8
Codec ID/Info                  : UTF-8 Plain Text
Duration                       : 38 min 43 s
Bit rate                       : 47 b/s
Count of elements              : 545
Stream size                    : 13.6 KiB (0%)
Title                          : ESub
Language                       : English
Default                        : No
Forced                         : No

Screen Shoots







YouTube Video:
Category:TV
Language:Dubs/Dual Audio
Total Size:2.96 GB
Info Hash:3A6E1F0AE98768C6CA67A417D500DF028BBF8CD4
Added By:india4movie Verified Uploader
Date Added:2021-06-11 20:37:13
Torrent Status:Torrent Verified


Ratings:Not Yet Rated (Log in to rate it)


Tracker:
udp://tracker.opentrackr.org:1337/announce

This Torrent also has backup trackers
URLSeedersLeechersCompleted
udp://tracker.opentrackr.org:1337/announce214179904
udp://tracker.cyberia.is:6969/announce000
udp://9.rarbg.me:2980/announce184117546
udp://open.stealth.si:80/announce5332136
udp://exodus.desync.com:6969/announce4431140
udp://tracker.moeking.me:6969/announce3419144
udp://explodie.org:6969/announce21120
udp://tracker.openbittorrent.com:80/announce13313910
udp://inferno.demonoid.is:3391/announce542296
udp://tracker.torrent.eu.org:451/announce5828150
udp://ipv4.tracker.harry.lu:80/announce000
udp://tracker.uw0.xyz:6969/announce5425136
udp://tracker.coppersurfer.tk:6969/announce000
udp://exodus.desync.com:6969/announce4431140
udp://tracker.tiny-vps.com:6969/announce000


File List: 





Comments
No comments still posted