Download Silsile (2014) [Hindi Dub] 720р WEB-DLRip Saicord torrent - GloDLS
Login
Username:
Password:
Remember Me:
[Signup]
[Recover Account]
Friends
Angie Torrents
Friendly Site

Pirateiro
Friendly site

Free Courses Online
Friendly site

ETTV
Friendly site

ProStyleX
Friendly site

KaranPC
Friendly site

P2PDL.com
Friendly site

OneHack
Friendly site

IGGGames
Friendly site

Torrent Details For "Silsile (2014) [Hindi Dub] 720р WEB-DLRip Saicord"

Silsile (2014) [Hindi Dub] 720р WEB-DLRip Saicord

To download this torrent, you need a BitTorrent client: Vuze or BTGuard
Download this torrent
Download using Magnet Link

Health:
Seeds: 0
Leechers: 0
Completed:
Last Checked: 14-05-2022 15:16:32

Uploader Reputation points : 12155





Write a Review for the Uploader:   5   Say Thanks with one good review:
Share on Facebook


Details
Name:Silsile (2014) [Hindi Dub] 720р WEB-DLRip Saicord
Description:


https://www.imdb.com/title/tt3176134






Video
ID                          : 1
Format                      : AVC
Format/Info                 : Advanced Video Codec
Format profile              : [email protected]
Format settings             : 3 Ref Frames
Format settings, CABAC      : No
Format settings, Reference  : 3 frames
Codec ID                    : avc1
Codec ID/Info               : Advanced Video Coding
Duration                    : 1 h 47 min
Bit rate                    : 1 979 kb/s
Maximum bit rate            : 4 030 kb/s
Width                       : 1 280 pixels
Height                      : 720 pixels
Display aspect ratio        : 16:9
Frame rate mode             : Constant
Frame rate                  : 24.000 FPS
Color space                 : YUV
Chroma subsampling          : 4:2:0
Bit depth                   : 8 bits
Scan type                   : Progressive
Bits/(Pixel*Frame)          : 0.089
Stream size                 : 1.48 GiB (91%)
Encoded date                : UTC 2022-03-04 12:22:32
Tagged date                 : UTC 2022-03-04 12:22:42
Codec configuration box     : avcC

Audio
ID                          : 2
Format                      : AAC LC
Format/Info                 : Advanced Audio Codec Low Complexity
Codec ID                    : mp4a-40-2
Duration                    : 1 h 47 min
Bit rate mode               : Variable
Bit rate                    : 187 kb/s
Maximum bit rate            : 192 kb/s
Channel(s)                  : 2 channels
Channel layout              : L R
Sampling rate               : 48.0 kHz
Frame rate                  : 46.875 FPS (1024 SPF)
Compression mode            : Lossy
Stream size                 : 144 MiB (9%)
Language                    : Hindi
Encoded date                : UTC 2022-03-04 12:08:55
Tagged date                 : UTC 2022-03-04 12:22:42
YouTube Video:   
Category:Movies
Language:Hindi  Hindi
Total Size:1.63 GB
Info Hash:27B448D306D5410640F86034E3B2C4552B9CB2D0
Added By:Saicord Verified Uploader
Date Added:2022-05-14 22:16:29
Torrent Status:Torrent Verified


Ratings:Not Yet Rated (Log in to rate it)


Tracker:
udp://opentor.org:2710/announce

This Torrent also has backup trackers
URLSeedersLeechersCompleted
udp://opentor.org:2710/announce000
udp://tracker.torrent.eu.org:451/announce000
udp://tracker.cyberia.is:6969/announce000
udp://exodus.desync.com:6969/announce000
udp://tracker.moeking.me:6969/announce000
udp://tracker.opentrackr.org:1337/announce000
udp://tracker.tiny-vps.com:6969/announce000
udp://open.stealth.si:80/announce000
udp://tracker.iamhansen.xyz:2000/announce000
udp://tracker.theoks.net:6969/announce000
udp://retracker.lanta-net.ru:2710/announce000
udp://open.demonii.si:1337/announce000
udp://tracker.uw0.xyz:6969/announce000
udp://ipv4.tracker.harry.lu:80/announce000
udp://tracker.coppersurfer.tk:6969/announce000


File List: 





Comments
No comments still posted