Download Shiva Baby (2020) [Hindi Dub] WEB-DLRip Saicord torrent - GloDLS
Torrent Details For "Shiva Baby (2020) [Hindi Dub] WEB-DLRip Saicord"

Shiva Baby (2020) [Hindi Dub] WEB-DLRip Saicord

To download this torrent, you need a BitTorrent client: Vuze or BTGuard
Download this torrent
Download using Magnet Link

Health:
Seeds: 1
Leechers: 0
Completed:
Last Checked: 14-05-2022 15:05:32

Uploader Reputation points : 12491





Write a Review for the Uploader:   5   Say Thanks with one good review:
Share on Facebook


Details
Name:Shiva Baby (2020) [Hindi Dub] WEB-DLRip Saicord
Description:


https://www.imdb.com/title/tt11317142






Video
ID                          : 1
Format                      : AVC
Format/Info                 : Advanced Video Codec
Format profile              : [email protected]
Format settings             : 3 Ref Frames
Format settings, CABAC      : No
Format settings, Reference  : 3 frames
Codec ID                    : avc1
Codec ID/Info               : Advanced Video Coding
Duration                    : 1 h 18 min
Bit rate                    : 1 165 kb/s
Maximum bit rate            : 2 950 kb/s
Width                       : 720 pixels
Height                      : 408 pixels
Display aspect ratio        : 16:9
Frame rate mode             : Constant
Frame rate                  : 24.000 FPS
Color space                 : YUV
Chroma subsampling          : 4:2:0
Bit depth                   : 8 bits
Scan type                   : Progressive
Bits/(Pixel*Frame)          : 0.165
Stream size                 : 658 MiB (86%)
Encoded date                : UTC 2022-03-04 16:10:59
Tagged date                 : UTC 2022-03-04 16:11:04
Codec configuration box     : avcC

Audio
ID                          : 2
Format                      : AAC LC
Format/Info                 : Advanced Audio Codec Low Complexity
Codec ID                    : mp4a-40-2
Duration                    : 1 h 18 min
Bit rate mode               : Variable
Bit rate                    : 188 kb/s
Maximum bit rate            : 192 kb/s
Channel(s)                  : 2 channels
Channel layout              : L R
Sampling rate               : 48.0 kHz
Frame rate                  : 46.875 FPS (1024 SPF)
Compression mode            : Lossy
Stream size                 : 106 MiB (14%)
Language                    : Hindi
Encoded date                : UTC 2022-03-04 16:07:10
Tagged date                 : UTC 2022-03-04 16:11:04
YouTube Video:   
Category:Movies
Language:Hindi  Hindi
Total Size:765.72 MB
Info Hash:CDF20B5AA9C2D3508FCD2FF26F1666C628D82446
Added By:Saicord Verified Uploader
Date Added:2022-05-14 22:05:30
Torrent Status:Torrent Verified


Ratings:Not Yet Rated (Log in to rate it)


Tracker:
udp://opentor.org:2710/announce

This Torrent also has backup trackers
URLSeedersLeechersCompleted
udp://opentor.org:2710/announce000
udp://tracker.torrent.eu.org:451/announce000
udp://tracker.cyberia.is:6969/announce000
udp://exodus.desync.com:6969/announce000
udp://tracker.moeking.me:6969/announce000
udp://tracker.opentrackr.org:1337/announce000
udp://tracker.tiny-vps.com:6969/announce000
udp://open.stealth.si:80/announce000
udp://tracker.iamhansen.xyz:2000/announce000
udp://tracker.theoks.net:6969/announce000
udp://retracker.lanta-net.ru:2710/announce000
udp://open.demonii.si:1337/announce000
udp://tracker.uw0.xyz:6969/announce000
udp://ipv4.tracker.harry.lu:80/announce000
udp://tracker.coppersurfer.tk:6969/announce000


File List: 





Comments
No comments still posted