Download SAS Red Notice (2021) [Hindi Dub] 1080p WEB-DLRip Saicord torrent - GloDLS
Torrent Details For "SAS Red Notice (2021) [Hindi Dub] 1080p WEB-DLRip Saicord"

SAS Red Notice (2021) [Hindi Dub] 1080p WEB-DLRip Saicord

To download this torrent, you need a BitTorrent client: Vuze or BTGuard
Download this torrent
Download using Magnet Link

Health:
Seeds: 1
Leechers: 0
Completed:
Last Checked: 14-05-2022 14:58:41

Uploader Reputation points : 12491





Write a Review for the Uploader:   5   Say Thanks with one good review:
Share on Facebook


Details
Name:SAS Red Notice (2021) [Hindi Dub] 1080p WEB-DLRip Saicord
Description:


https://www.imdb.com/title/tt4479380






Video
ID                          : 1
Format                      : AVC
Format/Info                 : Advanced Video Codec
Format profile              : [email protected]
Format settings             : 1 Ref Frames
Format settings, CABAC      : No
Format settings, Reference  : 1 frame
Format settings, GOP        : M=1, N=24
Codec ID                    : avc1
Codec ID/Info               : Advanced Video Coding
Duration                    : 2 h 5 min
Bit rate                    : 3 965 kb/s
Width                       : 1 920 pixels
Height                      : 1 080 pixels
Display aspect ratio        : 16:9
Frame rate mode             : Constant
Frame rate                  : 24.000 FPS
Color space                 : YUV
Chroma subsampling          : 4:2:0
Bit depth                   : 8 bits
Scan type                   : Progressive
Bits/(Pixel*Frame)          : 0.080
Stream size                 : 3.48 GiB (95%)
Encoded date                : UTC 2022-03-04 00:55:47
Tagged date                 : UTC 2022-03-04 00:55:47
Codec configuration box     : avcC

Audio
ID                          : 2
Format                      : AAC LC
Format/Info                 : Advanced Audio Codec Low Complexity
Codec ID                    : mp4a-40-2
Duration                    : 2 h 5 min
Bit rate mode               : Variable
Bit rate                    : 188 kb/s
Maximum bit rate            : 195 kb/s
Channel(s)                  : 2 channels
Channel layout              : L R
Sampling rate               : 48.0 kHz
Frame rate                  : 46.875 FPS (1024 SPF)
Compression mode            : Lossy
Stream size                 : 169 MiB (5%)
Encoded date                : UTC 2022-03-04 00:55:47
Tagged date                 : UTC 2022-03-04 00:55:47
YouTube Video:   
Category:Movies
Language:Hindi  Hindi
Total Size:3.64 GB
Info Hash:98D2690B3379CEE1E5E4484D39713428ADE5A1AC
Added By:Saicord Verified Uploader
Date Added:2022-05-14 21:58:40
Torrent Status:Torrent Verified


Ratings:Not Yet Rated (Log in to rate it)


Tracker:
udp://opentor.org:2710/announce

This Torrent also has backup trackers
URLSeedersLeechersCompleted
udp://opentor.org:2710/announce000
udp://tracker.torrent.eu.org:451/announce000
udp://tracker.cyberia.is:6969/announce000
udp://exodus.desync.com:6969/announce000
udp://tracker.moeking.me:6969/announce000
udp://tracker.opentrackr.org:1337/announce000
udp://tracker.tiny-vps.com:6969/announce000
udp://open.stealth.si:80/announce000
udp://tracker.iamhansen.xyz:2000/announce000
udp://tracker.theoks.net:6969/announce000
udp://retracker.lanta-net.ru:2710/announce000
udp://open.demonii.si:1337/announce000
udp://tracker.uw0.xyz:6969/announce000
udp://ipv4.tracker.harry.lu:80/announce000
udp://tracker.coppersurfer.tk:6969/announce000


File List: 





Comments
No comments still posted