GloDLS.to - Download Movies, TV, Games and Other Torrents Free RSS 2.0enGloDLS.to - Download Movies, TV, Games and Other Torrents FreeGloDLS.to - Download Movies, TV, Games and Other Torrents Free RSS Feedhttp://glodls.toCopyright GloDLS.to - Download Movies, TV, Games and Other Torrents FreeThu, 24 Jun 2021 16:02:57 +0800 The Reckoning (2021) [Hindi Dub] 1080p BDRip MelbetCinema http://glodls.to/torrent.php?id=11620466 http://glodls.to/torrent.php?id=11620466 Thu, 24 Jun 2021 15:55:16 +0800 Movies
https://www.imdb.com/title/tt9182964

[url=https://ibb.co/Rc1cPN8][img]https://i.ibb.co/NKXKprR/1.jpg[/img][/url]
[url=https://ibb.co/XXTGnhf][img]https://i.ibb.co/fM7T3hV/2.jpg[/img][/url]
[url=https://ibb.co/KK1Sn0w][img]https://i.ibb.co/1zSjcv6/3.jpg[/img][/url]
[url=https://ibb.co/j5SpG4H][img]https://i.ibb.co/SxzL0vJ/4.jpg[/img][/url]

Video
ID : 1
Format : AVC
Format/Info : Advanced Video Codec
Format profile : High@L4.2
Format settings : CABAC / 4 Ref Frames
Format settings, CABAC : Yes
Format settings, Reference frames : 4 frames
Codec ID : V_MPEG4/ISO/AVC
Duration : 1 h 52 min
Bit rate : 3 957 kb/s
Width : 1 920 pixels
Height : 808 pixels
Display aspect ratio : 2.40:1
Frame rate mode : Constant
Frame rate : 23.976 (24000/1001) FPS
Color space : YUV
Chroma subsampling : 4:2:0
Bit depth : 8 bits
Scan type : Progressive
Bits/(Pixel*Frame) : 0.106
Stream size : 3.11 GiB (95%)
Default : Yes
Forced : No
Color range : Limited
Color primaries : BT.709
Transfer characteristics : BT.709
Matrix coefficients : BT.709

Audio
ID : 2
Format : AAC LC
Format/Info : Advanced Audio Codec Low Complexity
Codec ID : A_AAC-2
Duration : 1 h 52 min
Bit rate : 192 kb/s
Channel(s) : 2 channels
Channel layout : L R
Sampling rate : 48.0 kHz
Frame rate : 46.875 FPS (1024 SPF)
Compression mode : Lossy
Stream size : 152 MiB (5%)
Title : MelbetCinema
Language : Hindi
Default : Yes
Forced : No ]]>
My Wifes Hot Friend - Jennifer White (06 24 21) http://glodls.to/torrent.php?id=11620463 http://glodls.to/torrent.php?id=11620463 Thu, 24 Jun 2021 15:52:07 +0800 Adult XXX https://olarixas.xyz/img-60d437ac5aeff.html

Duration: 00:34:36
Video codec: H.264 / AVC / MPEG-4 AVC / MPEG-4 part 10; Video: 1280x720, 16:9, 23.98fps, 2.86Mbps
Audio codec: AAC (Advanced Audio Coding); Audio: 310Kbps, 2 channels (stereo)

[img]https://olarixas.xyz/upload/big/2021/06/24/60d437ac40bff.jpeg[/img] ]]>
The Reckoning (2021) [Hindi Dub] 720p BDRip MelbetCinema http://glodls.to/torrent.php?id=11620461 http://glodls.to/torrent.php?id=11620461 Thu, 24 Jun 2021 15:50:51 +0800 Movies
https://www.imdb.com/title/tt9182964

[url=https://ibb.co/Qmgp2dK][img]https://i.ibb.co/tCGQ7XJ/1.jpg[/img][/url]
[url=https://ibb.co/KLTkdRM][img]https://i.ibb.co/Tb9S6pV/2.jpg[/img][/url]
[url=https://ibb.co/30CvNmD][img]https://i.ibb.co/YtLXkBz/3.jpg[/img][/url]
[url=https://ibb.co/mJ96mm9][img]https://i.ibb.co/b1szxxs/4.jpg[/img][/url]

Video
ID : 1
Format : AVC
Format/Info : Advanced Video Codec
Format profile : High@L4.2
Format settings : CABAC / 4 Ref Frames
Format settings, CABAC : Yes
Format settings, Reference frames : 4 frames
Codec ID : V_MPEG4/ISO/AVC
Duration : 1 h 52 min
Bit rate : 1 997 kb/s
Width : 1 280 pixels
Height : 540 pixels
Display aspect ratio : 2.40:1
Frame rate mode : Constant
Frame rate : 23.976 (24000/1001) FPS
Standard : NTSC
Color space : YUV
Chroma subsampling : 4:2:0
Bit depth : 8 bits
Scan type : Progressive
Bits/(Pixel*Frame) : 0.120
Stream size : 1.57 GiB (91%)
Default : Yes
Forced : No
Color range : Limited
Color primaries : BT.601 NTSC
Transfer characteristics : BT.601
Matrix coefficients : BT.601

Audio
ID : 2
Format : AAC LC
Format/Info : Advanced Audio Codec Low Complexity
Codec ID : A_AAC-2
Duration : 1 h 52 min
Bit rate : 192 kb/s
Channel(s) : 2 channels
Channel layout : L R
Sampling rate : 48.0 kHz
Frame rate : 46.875 FPS (1024 SPF)
Compression mode : Lossy
Stream size : 152 MiB (9%)
Title : MelbetCinema
Language : Hindi
Default : Yes
Forced : No ]]>
The Reckoning (2021) [Hindi Dub] BDRip MelbetCinema http://glodls.to/torrent.php?id=11620460 http://glodls.to/torrent.php?id=11620460 Thu, 24 Jun 2021 15:46:39 +0800 Movies
https://www.imdb.com/title/tt9182964

[url=https://ibb.co/D8Q70ct][img]https://i.ibb.co/F0zBRZK/1.jpg[/img][/url]
[url=https://ibb.co/7C71vhG][img]https://i.ibb.co/F3GD6pB/2.jpg[/img][/url]
[url=https://ibb.co/ZSB7Zt5][img]https://i.ibb.co/PMc0S3K/3.jpg[/img][/url]
[url=https://ibb.co/L8hqwCH][img]https://i.ibb.co/0cVWNfv/4.jpg[/img][/url]

Video
ID : 0
Format : MPEG-4 Visual
Format profile : Advanced Simple@L5
Format settings : BVOP3
Format settings, BVOP : 3
Format settings, QPel : No
Format settings, GMC : No warppoints
Format settings, Matrix : Default (H.263)
Codec ID : XVID
Codec ID/Hint : XviD
Duration : 1 h 52 min
Bit rate : 1 483 kb/s
Width : 720 pixels
Height : 304 pixels
Display aspect ratio : 2.40:1
Frame rate : 23.976 (24000/1001) FPS
Color space : YUV
Chroma subsampling : 4:2:0
Bit depth : 8 bits
Scan type : Progressive
Compression mode : Lossy
Bits/(Pixel*Frame) : 0.283
Stream size : 1.17 GiB (88%)
Writing library : XviD 69

Audio
ID : 1
Format : AC-3
Format/Info : Audio Coding 3
Commercial name : Dolby Digital
Codec ID : 2000
Duration : 1 h 52 min
Bit rate mode : Constant
Bit rate : 192 kb/s
Channel(s) : 2 channels
Channel layout : L R
Sampling rate : 48.0 kHz
Frame rate : 31.250 FPS (1536 SPF)
Bit depth : 16 bits
Compression mode : Lossy
Stream size : 154 MiB (11%)
Alignment : Aligned on interleaves
Interleave, duration : 160 ms (3.84 video frames)
Interleave, preload duration : 640 ms
Service kind : Complete Main ]]>
YouCam Perfect - Best Photo Editor & Selfie Camera v5 63 1 Premium Mod Apk {CracksHash} http://glodls.to/torrent.php?id=11620459 http://glodls.to/torrent.php?id=11620459 Thu, 24 Jun 2021 15:42:05 +0800 Android [center][img]https://i.postimg.cc/NM5Zkp6h/image-3.png[/img]
[b]YouCam Perfect - Best Photo Editor & Selfie Camera v5.63.1 Premium Mod Apk {CracksHash}[/b][/center]

YouCam Perfect is the best beauty camera & selfie photo editing app with over 300 MILLION downloads and counting! Download YouCam Perfect for all the selfie and photo editing tools you need – face touch up, photo effects, camera filters, collages, fonts, stickers and more!

Save photos to your cloud backup and access them across multiple devices. Take sweet selfies and get creative with YouCam Perfect to turn your pics into masterpieces!

[b]Features :-[/b]

【YouCam Perfect Premium Version】
◇ Upgrade to YouCam Perfect Premium for unlimited access to 1000+ exclusive effects, frames, filters, stickers, beautifying tools and more!
◇ Share awesome edits with friends and show off your creativity with NEW premium content monthly! YouCam Perfect Premium features include:
• Save photos in HD
• Remove watermarks
• Unlimited object removal
• ADS-FREE editing experience

【Take Perfect Photos and Edit Selfies in Seconds】
◇ Beautify selfies in just one tap: whiten teeth, remove blemishes & wrinkles, smooth skin, reshape faces, remove red eyes, adjust smile and more!
◇ Use live photo editor effects to instantly take awesome snaps or record videos in one tap

【Collages, Frames & Effects】
◇ Find the amazing collage or frame for every photo, no matter the holiday or occasion
◇ Use filters and pro photo effects to level up your pics
◇ Customize your snaps with stylish grid or template to share to Facebook, Instagram and your favorite social networks
◇ Enhance colors with trendy effects on your photos to WOW your friends

【Magic Brush & Layers】
◇ Magic Brush adds a burst of shapes and colors wherever you touch
◇ Layer up multiple images, stickers, and text to create awesome pics

【Photo Backgrounds & Object Remover】
◇ Cut out the subject of a photo, then give it a fun new background
◇ Use photo backgrounds as green screen for your images
◇ Erase unwanted background objects or people with the intelligent object removal tool

【Highlight or Hide Object with Blur】
◇ Highlight images or focus on what’s important in a photo for better portraits
◇ Edit photos to conceal photobombers or background objects and make your photos more professional!

Download YouCam Perfect to take and edit the perfect picture today!

[b]Mod Info :- [/b]
★ Premium features unlocked
➡ CPU architectures: armeabi-v7a, arm64-v8a
★ Debug Info removed

[b]Virus Total links -[/b]
[b]arm v7:- [/b][url=https://www.virustotal.com/gui/file/48a02d1d244f906561d59e3ca61ed59c66434b6434dca098f1277567c1410e81/detection]https://www.virustotal.com/gui/file/48a02d1d244f906561d59e3ca61ed59c66434b6434dca098f1277567c1410e81/detection[/url]
[b]arm v8:- [/b][url=https://www.virustotal.com/gui/file/bcaea6c0e987dc288d1674db7833c138130026878c70b0487746cbea19d3fc05/detection]https://www.virustotal.com/gui/file/bcaea6c0e987dc288d1674db7833c138130026878c70b0487746cbea19d3fc05/detection[/url]

[b]Hybrid Analysis -[/b]
[b]arm v7:- [/b][url=https://www.hybrid-analysis.com/sample/48a02d1d244f906561d59e3ca61ed59c66434b6434dca098f1277567c1410e81]https://www.hybrid-analysis.com/sample/48a02d1d244f906561d59e3ca61ed59c66434b6434dca098f1277567c1410e81[/url]
[b]arm v8:- [/b][url=https://www.hybrid-analysis.com/sample/bcaea6c0e987dc288d1674db7833c138130026878c70b0487746cbea19d3fc05]https://www.hybrid-analysis.com/sample/bcaea6c0e987dc288d1674db7833c138130026878c70b0487746cbea19d3fc05[/url]


[center][url=https://discord.gg/zhmnQ5Fmpn][img]https://crackshash.com/wp-content/uploads/2021/05/discord-join.png[/img][/url][/center]

[center][b]Visit for more apps - [/b][url=https://crackshash.com/]CracksHash[/url][/center]

[center][url=https://www.crackshash.com/][img]https://crackshash.com/wp-content/uploads/2021/05/CracksHash-apps.png[/img][/url][/center]


[quote]CracksHash always[/quote]
]]>
Doors (2021) [Hindi Dub] 1080p WEB-DLRip MelbetCinema http://glodls.to/torrent.php?id=11620457 http://glodls.to/torrent.php?id=11620457 Thu, 24 Jun 2021 15:41:50 +0800 Movies
https://www.imdb.com/title/tt12483708/

[url=https://ibb.co/r2D02wc][img]https://i.ibb.co/Df0WfR8/1.jpg[/img][/url]
[url=https://ibb.co/fXtnjMz][img]https://i.ibb.co/YN8yH2F/2.jpg[/img][/url]
[url=https://ibb.co/YkxgYLT][img]https://i.ibb.co/SnzSW37/3.jpg[/img][/url]
[url=https://ibb.co/qY7WwdN][img]https://i.ibb.co/s9b6r2K/4.jpg[/img][/url]

Video
ID : 1
Format : AVC
Format/Info : Advanced Video Codec
Format profile : High@L4.2
Format settings : CABAC / 4 Ref Frames
Format settings, CABAC : Yes
Format settings, Reference frames : 4 frames
Codec ID : V_MPEG4/ISO/AVC
Duration : 1 h 25 min
Bit rate : 3 888 kb/s
Width : 1 920 pixels
Height : 818 pixels
Display aspect ratio : 2.35:1
Frame rate mode : Constant
Frame rate : 23.976 (24000/1001) FPS
Color space : YUV
Chroma subsampling : 4:2:0
Bit depth : 8 bits
Scan type : Progressive
Bits/(Pixel*Frame) : 0.103
Stream size : 2.33 GiB (95%)
Default : Yes
Forced : No
Color range : Limited
Color primaries : BT.709
Transfer characteristics : BT.709
Matrix coefficients : BT.709

Audio
ID : 2
Format : AAC LC
Format/Info : Advanced Audio Codec Low Complexity
Codec ID : A_AAC-2
Duration : 1 h 25 min
Bit rate : 192 kb/s
Channel(s) : 2 channels
Channel layout : L R
Sampling rate : 48.0 kHz
Frame rate : 46.875 FPS (1024 SPF)
Compression mode : Lossy
Stream size : 116 MiB (5%)
Title : MelbetCinema
Language : Hindi
Default : Yes
Forced : No ]]>
Truecaller Caller ID, spam blocking & call record v11 65 7 Premium Mod Apk {CracksHash} http://glodls.to/torrent.php?id=11620454 http://glodls.to/torrent.php?id=11620454 Thu, 24 Jun 2021 15:39:52 +0800 Android [center][img]https://i.postimg.cc/XvTHcyK2/image-3.png[/img]
[b]Truecaller Caller ID, spam blocking & call record v11.65.7 Premium Mod Apk {CracksHash}[/b][/center]

Manage all your calls and messages quickly, by filtering out telemarketers and other unwanted disturbances. With a community-based spam list updated by millions of users worldwide, Truecaller is the only app you need to make your communication safe and efficient.

[b]Features :-[/b]

[b]Powerful Dialer & Caller ID:[/b]
- The world’s best Caller ID will identify anyone calling you
- See who is calling even before they call
- Use Voice calling to talk to your friends on Truecaller for free
- Call Recording - Record important phone calls and save them to your phone (not supported on Android Pie and above)
- Backup call history, contacts, messages and settings to Google Drive

[b]World Class Blocking & Spam Detection:[/b]
- Block calls and SMS - Identify and auto-block telemarketers, harassers, scammers, fraud, sales, and more
- Community based spam reporting in real time
- Advanced blocking options for blocking countries, similar digit sequences, and more!

[b]Smart Messaging:[/b]
- Automatically identify every unknown SMS
- Automatically block spam and telemarketing SMS
- Organize your SMS into Personal, Important, Other and Spam
- One-tap payment on transactional SMS
- Free Chat with your friends and family in Group Chat
- Use Flash messaging for urgent messages
- Track all upcoming bills and transactional updates in Important tab

[b]Truecaller Pay - UPI Payments[/b]
- Safe, secure and instant money transfers 24/7
- Quick mobile recharges and bill payments
- Manage all your bank accounts with BHIM-UPI
- Bank grade security provided by ICICI Bank

[b]Truecaller Premium - Upgrade and get access to:[/b]
- No ads
- Know who viewed your profile
- Advanced blocking and filtering options
- Option to view profiles privately
- Get the Premium badge on your profile
- 30 contact requests a month
- Record phone calls (not supported on Android Pie and above)

[b]Truecaller Gold – Stand out from the crowd:[/b]
- Gold Caller ID
- High priority support
- All Premium features

[b]Mod Info:[/b]
Standalone Android Package;
Android App Bundle Repacked
• Supported CPU architecture: armeabi-v7a, arm64-v8a;
• Supported Screen DPIs: ldpi [120dpi], mdpi [160dpi], hdpi [240dpi], xhdpi [320dpi], xxhdpi [480dpi], xxxhdpi [640dpi];
• Languages: Multi Languages;
Premium Gold features unlocked;
Disabled / Removed unwanted Permissions + Receivers and Services;
Analytics / Crashlytics disabled.

This app has no advertisements

[b]Virus Total links -[/b]
[url=https://www.virustotal.com/gui/file/f19ea2b9fee58761d875fa62f17befe17baa4fb934ddbe2b512f32e4f49f4123/detection]https://www.virustotal.com/gui/file/f19ea2b9fee58761d875fa62f17befe17baa4fb934ddbe2b512f32e4f49f4123/detection[/url]

[b]Hybrid Analysis -[/b]
[url=https://www.hybrid-analysis.com/sample/f19ea2b9fee58761d875fa62f17befe17baa4fb934ddbe2b512f32e4f49f4123]https://www.hybrid-analysis.com/sample/f19ea2b9fee58761d875fa62f17befe17baa4fb934ddbe2b512f32e4f49f4123[/url]


[center][url=https://discord.gg/zhmnQ5Fmpn][img]https://crackshash.com/wp-content/uploads/2021/05/discord-join.png[/img][/url][/center]

[center][b]Visit for more apps - [/b][url=https://crackshash.com/]CracksHash[/url][/center]

[center][url=https://www.crackshash.com/][img]https://crackshash.com/wp-content/uploads/2021/05/CracksHash-apps.png[/img][/url][/center]

[quote]CracksHash always[/quote]
]]>
TomTom Navigation Nds v3 1 48 Premium Mod Apk {CracksHash} http://glodls.to/torrent.php?id=11620452 http://glodls.to/torrent.php?id=11620452 Thu, 24 Jun 2021 15:37:26 +0800 Android [center][img]https://i.postimg.cc/G2tXyzfC/image-2.png[/img]
[b]TomTom Navigation Nds v3.1.48 Premium Mod Apk {CracksHash}[/b][/center]

Offline Maps, Online Experience. Save data, drive safer.

[b]Features :-[/b]

[b]STAY CONNECTED[/b]
SDL connection: Connect your phone and car to view and control the app from your display.
TomTom Traffic: Get intelligent routes that avoid traffic in real-time.*
Speed Cameras: Advanced warnings notify you about upcoming speed cameras.*
Online Search: Look up any destination on the go with our up-to-date database.*
Share ETA: Let others know your arrival time and location using any messaging channel of your choice.

[b]SAVE YOUR DATA[/b]
Offline world maps: Download offline maps of the world, and save your mobile data.**
Weekly Updates: Get the latest map changes for road closures, road direction and speed**
Ad free: Enjoy an ad-free experience that doesn't waste your data.

[b]ENJOY YOUR DRIVE[/b]
Points of interest: Find where to stop to eat, get gas and cash, all available offline en route or at your destination.
Alternative routes: See alternative routes to your destination.
Moving Lane Guidance: Approach exits and junctions with ease, and know exactly which lane you need to be in.
Drive to contacts & photos: Easily plan a route using contacts and geotagged photos stored in your phone.

[b]MAPS[/b]
Years of mapping experience and passion come together in regularly updated offline maps for over 150 countries to give you a seamless navigation experience.

*These services require a mobile phone connection. Your operator may charge you for the data used and costs may be significantly higher when used abroad. Check http://tomtom.com/20719 for availability per country.
**Data storage constraints may apply and an SD card may be required. Download 4 or more full updates of any installed map per year. You need a wireless internet connection to download new maps and updates.
TomTom reserves its right to unilaterally withdraw and/or to amend this offer and/or to amend the terms and conditions.

[b]Mod info:[/b]
- Choice of alternative routes, max 6
- Possibility to change the route from the cockpit
- Mohawk speed look
- Track recording
- Extended labs
- Destination prediction
- Thrill route


[b][i]Virus Total links -[/i][/b]
[url=https://www.virustotal.com/gui/file/0fb36800a294b2d35a0dc06c388a74f1c469a188b908879fb2e5fc3e7525b378/detection]https://www.virustotal.com/gui/file/0fb36800a294b2d35a0dc06c388a74f1c469a188b908879fb2e5fc3e7525b378/detection[/url]


[center][url=https://discord.gg/zhmnQ5Fmpn][img]https://crackshash.com/wp-content/uploads/2021/05/discord-join.png[/img][/url][/center]

[center][b]Visit for more apps - [/b][url=https://crackshash.com/]CracksHash[/url][/center]

[center][url=https://www.crackshash.com/][img]https://crackshash.com/wp-content/uploads/2021/05/CracksHash-apps.png[/img][/url][/center]


[quote]CracksHash always[/quote]

]]>
Doors (2021) [Hindi Dub] 720p WEB-DLRip MelbetCinema http://glodls.to/torrent.php?id=11620450 http://glodls.to/torrent.php?id=11620450 Thu, 24 Jun 2021 15:34:44 +0800 Movies
https://www.imdb.com/title/tt12483708/

[url=https://ibb.co/WF6GLKj][img]https://i.ibb.co/2PyWTKH/1.jpg[/img][/url]
[url=https://ibb.co/6D3Yq2m][img]https://i.ibb.co/2cDqpwy/2.jpg[/img][/url]
[url=https://ibb.co/nj3Wjgj][img]https://i.ibb.co/HqNJqFq/3.jpg[/img][/url]
[url=https://ibb.co/PtSbBxJ][img]https://i.ibb.co/25bLXqR/4.jpg[/img][/url]

Video
ID : 1
Format : AVC
Format/Info : Advanced Video Codec
Format profile : High@L4.2
Format settings : CABAC / 4 Ref Frames
Format settings, CABAC : Yes
Format settings, Reference frames : 4 frames
Codec ID : V_MPEG4/ISO/AVC
Duration : 1 h 25 min
Bit rate : 1 996 kb/s
Width : 1 280 pixels
Height : 546 pixels
Display aspect ratio : 2.35:1
Frame rate mode : Constant
Frame rate : 23.976 (24000/1001) FPS
Standard : NTSC
Color space : YUV
Chroma subsampling : 4:2:0
Bit depth : 8 bits
Scan type : Progressive
Bits/(Pixel*Frame) : 0.119
Stream size : 1.19 GiB (91%)
Default : Yes
Forced : No
Color range : Limited
Color primaries : BT.601 NTSC
Transfer characteristics : BT.601
Matrix coefficients : BT.601

Audio
ID : 2
Format : AAC LC
Format/Info : Advanced Audio Codec Low Complexity
Codec ID : A_AAC-2
Duration : 1 h 25 min
Bit rate : 192 kb/s
Channel(s) : 2 channels
Channel layout : L R
Sampling rate : 48.0 kHz
Frame rate : 46.875 FPS (1024 SPF)
Compression mode : Lossy
Stream size : 116 MiB (9%)
Title : MelbetCinema
Language : Hindi
Default : Yes
Forced : No ]]>
FilmPlus v1 2 9 Premium Mod Apk {CracksHash} http://glodls.to/torrent.php?id=11620449 http://glodls.to/torrent.php?id=11620449 Thu, 24 Jun 2021 15:34:39 +0800 Android
[center][img]https://i.postimg.cc/sDP4mqy2/filmplus.jpg[/img]
[b]FilmPlus - Watch movies & Tv shows for Free v1.2.9 Premium Mod Apk {CracksHash}[/b][/center]

FilmPlus is a TerrariumTV clone, Watch movies & tv shows for free on Android device, Amazon Fire Stick, Fire TV, Nvidia Shield, etc.

[b]Features :-[/b]

FilmPlus is a relived version of the legendary TerrariumTV with new link scraping technology. Which mean FilmPlus is capable of pulling bunch of links for movies and tv shows, both normal and Real-debrid links.

What make FilmPlus different?
FilmPlus is built from scratch, not modding TerrariumTV like other apks

Sync with Trakt favorite and watch episode records.

Real-debrid, Alldebrid, Premiumize supported.

Find any movie or tv show you want.

1080p and even 4K movie quality.

Lovable Terrarium layout.

[b]Mod Info :- [/b]
Ads removed
Location info removed
Read phone removed
Signature check disabled
Ad permissions removed
Analytics disabled
Other useless permissions removed
This app has no advertisement


[b]Virus Total links -[/b]
[url=https://www.virustotal.com/gui/file/50c65b0aee8a47dbd28bb728c114d9172d14606e696da6538fd32cfbb9712be4/detection]https://www.virustotal.com/gui/file/50c65b0aee8a47dbd28bb728c114d9172d14606e696da6538fd32cfbb9712be4/detection[/url]

[b]Hybrid Analysis -[/b]
[url=https://www.hybrid-analysis.com/sample/50c65b0aee8a47dbd28bb728c114d9172d14606e696da6538fd32cfbb9712be4]https://www.hybrid-analysis.com/sample/50c65b0aee8a47dbd28bb728c114d9172d14606e696da6538fd32cfbb9712be4[/url]


[center][url=https://discord.gg/zhmnQ5Fmpn][img]https://crackshash.com/wp-content/uploads/2021/05/discord-join.png[/img][/url][/center]

[center][b]Visit for more apps - [/b][url=https://crackshash.com/]CracksHash[/url][/center]

[center][url=https://www.crackshash.com/][img]https://crackshash.com/wp-content/uploads/2021/05/CracksHash-apps.png[/img][/url][/center]

[quote]CracksHash always[/quote]
]]>
Duolingo Learn Languages Free v5 14 4 Premium Mod Apk {CracksHash} http://glodls.to/torrent.php?id=11620447 http://glodls.to/torrent.php?id=11620447 Thu, 24 Jun 2021 15:31:42 +0800 Android
[center][img]https://i.postimg.cc/qByxJNgM/image-1.png[/img]
[b]Duolingo Learn Languages Free v5.14.4 Premium Mod Apk {CracksHash}[/b][/center]

Learn Spanish, French, German, Italian, Russian, Romanian, Portuguese, Turkish, Dutch, Irish, Danish, Swedish, Ukrainian, Esperanto, Polish, Greek, Hungarian, Norwegian, Hebrew, Welsh, Swahili and English

[b]Features :-[/b]

[b]Totally fun and free.[/b]

Practice your speaking, reading, listening and writing skills while playing a game! You'll improve your vocabulary and grammar skills by answering questions and completing lessons. Start with basic verbs, phrases, and sentences, and learn new words daily.

• Google Play's Editor's Choice and "Best of the Best" of 2013 and 2014!
• "Far and away the best language-learning app." —The Wall Street Journal
• "Duolingo may hold the secret to the future of education." —TIME Magazine
• "Among apps for learning a language, you can't beat Duolingo." —PC Magazine.
• "The most productive means of procrastination ever discovered. The short lesson blocks are painless and peppy, and reaching the next level (and then the level after that) becomes addictive." —Slate

[b]Duolingo is changing the way people learn languages.[/b]

• It's free, for real.
• It's fun. Advance by completing bite-sized lessons, and track your progress with shiny achievements.
• It's effective. 34 hours of Duolingo are equivalent to a semester of university-level education.

[b]Mod Info :- [/b]

Languages Courses unlocked;
Start Lessons unlocked;
Special Offers features Unlocked;
Power-Ups features Unlocked;
Outfits features Unlocked;
Bonus features Unlocked;
Available to download offline;
Languages: Multi Languages;
Disabled / Removed unwanted Permissions + Receivers and Services;
Analytics / Crashlytics disabled.
This app has no advertisements




[b]Virus Total links -[/b]
[url=https://www.virustotal.com/gui/file/2c533e03bae800462110dd9430b4352c08a30cb3234a8c78df611a74624ee6f3/detection]https://www.virustotal.com/gui/file/2c533e03bae800462110dd9430b4352c08a30cb3234a8c78df611a74624ee6f3/detection[/url]

[b]Hybrid Analysis -[/b]
[url=https://www.hybrid-analysis.com/sample/2c533e03bae800462110dd9430b4352c08a30cb3234a8c78df611a74624ee6f3]https://www.hybrid-analysis.com/sample/2c533e03bae800462110dd9430b4352c08a30cb3234a8c78df611a74624ee6f3[/url]


[center][url=https://discord.gg/zhmnQ5Fmpn][img]https://crackshash.com/wp-content/uploads/2021/05/discord-join.png[/img][/url][/center]

[center][b]Visit for more apps - [/b][url=https://crackshash.com/]CracksHash[/url][/center]

[center][url=https://www.crackshash.com/][img]https://crackshash.com/wp-content/uploads/2021/05/CracksHash-apps.png[/img][/url][/center]

[quote]CracksHash always[/quote]
]]>
Doors (2021) [Hindi Dub] WEB-DLRip MelbetCinema http://glodls.to/torrent.php?id=11620445 http://glodls.to/torrent.php?id=11620445 Thu, 24 Jun 2021 15:28:57 +0800 Movies
https://www.imdb.com/title/tt12483708/

[url=https://ibb.co/BjtFxTG][img]https://i.ibb.co/1KLj5RM/1.jpg[/img][/url]
[url=https://ibb.co/drf9gmh][img]https://i.ibb.co/f2XRvDc/2.jpg[/img][/url]
[url=https://ibb.co/QpVKgyW][img]https://i.ibb.co/YPSLCH5/3.jpg[/img][/url]
[url=https://ibb.co/K9v7y6B][img]https://i.ibb.co/Q6wnm9h/4.jpg[/img][/url]

Video
ID : 0
Format : MPEG-4 Visual
Format profile : Advanced Simple@L5
Format settings : BVOP3
Format settings, BVOP : 3
Format settings, QPel : No
Format settings, GMC : No warppoints
Format settings, Matrix : Default (H.263)
Codec ID : XVID
Codec ID/Hint : XviD
Duration : 1 h 25 min
Bit rate : 1 500 kb/s
Width : 720 pixels
Height : 306 pixels
Display aspect ratio : 2.35:1
Frame rate : 23.976 (24000/1001) FPS
Color space : YUV
Chroma subsampling : 4:2:0
Bit depth : 8 bits
Scan type : Progressive
Compression mode : Lossy
Bits/(Pixel*Frame) : 0.284
Stream size : 919 MiB (88%)
Writing library : XviD 69

Audio
ID : 1
Format : AC-3
Format/Info : Audio Coding 3
Commercial name : Dolby Digital
Codec ID : 2000
Duration : 1 h 25 min
Bit rate mode : Constant
Bit rate : 192 kb/s
Channel(s) : 2 channels
Channel layout : L R
Sampling rate : 48.0 kHz
Frame rate : 31.250 FPS (1536 SPF)
Bit depth : 16 bits
Compression mode : Lossy
Stream size : 118 MiB (11%)
Alignment : Aligned on interleaves
Interleave, duration : 160 ms (3.84 video frames)
Interleave, preload duration : 640 ms
Service kind : Complete Main ]]>
Spirit Untamed 2021 HDRip XviD AC3-EVO http://glodls.to/torrent.php?id=11620443 http://glodls.to/torrent.php?id=11620443 Thu, 24 Jun 2021 15:27:53 +0800 Movies
Torrent Downloaded From ProstyleX
For More Exclusive Stuff Visit Us [url=https://prostylex.org]https://prostylex.org[/url]

https://www.imdb.com/title/tt11084896/

RELEASE: Spirit.Untamed.2021.HDRip.XviD.AC3-EVO

ViDEO: 1 900 kb/s

RESOLUTiON: 720x300

RUNTiME: 1 h 27 min

SUBTiTLES: No.

AUDiO: 384 kb/s AC-3 6 channels (CORE)

LANGUAGE: ENGLiSH

ENCODER: eSc

SPECIAL THANKS TO: BOSS_HITMAN + DdHD + KING_DVD + Ach + Mr. Spy + Warm + MUSE

NOTES: Enjoy.

[url=https://orangepix.is/image/vscrD][img]https://orangepix.is/images/2021/06/24/e3e6ca0fdf431007fc828ebb705330a3.md.png[/img][/url]
[url=https://orangepix.is/image/vsgzL][img]https://orangepix.is/images/2021/06/24/914a54f5eff39b75a5583c222b3f77b9.md.png[/img][/url]
[url=https://orangepix.is/image/vs38N][img]https://orangepix.is/images/2021/06/24/b4ecdf150ce85d9d7c6f66248ba237af.md.png[/img][/url]
[url=https://orangepix.is/image/vsxRx][img]https://orangepix.is/images/2021/06/24/0f0eba9b0361df161b17c81a3df489ac.md.png[/img][/url] ]]>
Sol Invictus 2021 HDRip XviD AC3-EVO http://glodls.to/torrent.php?id=11620442 http://glodls.to/torrent.php?id=11620442 Thu, 24 Jun 2021 15:27:31 +0800 Movies
Torrent Downloaded From ProstyleX
For More Exclusive Stuff Visit Us [url=https://prostylex.org]https://prostylex.org[/url]

https://www.imdb.com/title/tt1584146/

RELEASE: Sol.Invictus.2021.HDRip.XviD.AC3-EVO

SOURCE: WORM

ViDEO: 2 200 kb/s

RESOLUTiON: 720x404

RUNTiME: 1 h 23 min

SUBTiTLES: No.

AUDiO: 192 kb/s AC-3 2 channels

LANGUAGE: ENGLiSH

ENCODER: eSc

SPECIAL THANKS TO: BOSS_HITMAN + DdHD + KING_DVD + Ach + Mr. Spy + Warm + MUSE

NOTES: Enjoy.

[url=https://orangepix.is/image/vsk97][img]https://orangepix.is/images/2021/06/24/8dd8806f53a73906ae24c6329654b9b1.md.png[/img][/url]
[url=https://orangepix.is/image/vsdsR][img]https://orangepix.is/images/2021/06/24/a5b92096ef9e9a15f81aff0e5977009d.md.png[/img][/url]
[url=https://orangepix.is/image/vszYl][img]https://orangepix.is/images/2021/06/24/5948a8a7892ea582c8321e51bc9e0d3b.md.png[/img][/url]
[url=https://orangepix.is/image/vs6GM][img]https://orangepix.is/images/2021/06/24/4538b5b959468139a4e56d8b72fbcb01.md.png[/img][/url] ]]>
Finding Ophelia 2021 HDRip XviD AC3-EVO http://glodls.to/torrent.php?id=11620440 http://glodls.to/torrent.php?id=11620440 Thu, 24 Jun 2021 15:25:16 +0800 Movies
Torrent Downloaded From ProstyleX
For More Exclusive Stuff Visit Us [url=https://prostylex.org]https://prostylex.org[/url]

https://www.imdb.com/title/tt11469636/

RELEASE: Finding.Ophelia.2021.HDRip.XviD.AC3-EVO

SOURCE: WORM

ViDEO: 2 350 kb/s

RESOLUTiON: 720x304

RUNTiME: 1 h 13 min

SUBTiTLES: No.

AUDiO: 192 kb/s AC-3 2 channels

LANGUAGE: ENGLiSH

ENCODER: eSc

SPECIAL THANKS TO: BOSS_HITMAN + DdHD + KING_DVD + Ach + Mr. Spy + Warm + MUSE

NOTES: Enjoy.

[url=https://orangepix.is/image/vsCE3][img]https://orangepix.is/images/2021/06/24/397c1106b890b1c521f659fc01022b8c.md.png[/img][/url]
[url=https://orangepix.is/image/vs93Z][img]https://orangepix.is/images/2021/06/24/6cece6279ad7a29586d06b17a7d4b9f1.md.png[/img][/url]
[url=https://orangepix.is/image/vsorm][img]https://orangepix.is/images/2021/06/24/4c0101135864cc231b62f685b557bb94.md.png[/img][/url]
[url=https://orangepix.is/image/vs4ky][img]https://orangepix.is/images/2021/06/24/1ba5c2cfcf043eb0cb01eea367ae1b7e.md.png[/img][/url] ]]>
Calm Like a Bomb 2021 HDRip XviD AC3-EVO http://glodls.to/torrent.php?id=11620439 http://glodls.to/torrent.php?id=11620439 Thu, 24 Jun 2021 15:24:05 +0800 Movies
Torrent Downloaded From ProstyleX
For More Exclusive Stuff Visit Us [url=https://prostylex.org]https://prostylex.org[/url]

https://www.imdb.com/title/tt10801400/

RELEASE: Calm.Like.a.Bomb.2021.HDRip.XviD.AC3-EVO

SOURCE: WORM

ViDEO: 2 200 kb/s

RESOLUTiON: 720x404

RUNTiME: 1 h 22 min

SUBTiTLES: No.

AUDiO: 192 kb/s AC-3 2 channels

LANGUAGE: ENGLiSH

ENCODER: eSc

SPECIAL THANKS TO: BOSS_HITMAN + DdHD + KING_DVD + Ach + Mr. Spy + Warm + MUSE

NOTES: Enjoy.

[url=https://orangepix.is/image/vsIRO][img]https://orangepix.is/images/2021/06/24/cf0abc57defa9b72d45bc32a0bfd785b.md.png[/img][/url]
[url=https://orangepix.is/image/vsbj6][img]https://orangepix.is/images/2021/06/24/d07e66d988c8153c007e8128e9e51a74.md.png[/img][/url]
[url=https://orangepix.is/image/vsJl8][img]https://orangepix.is/images/2021/06/24/e476b1d3a26b417c32c18f1cf1a1169d.md.png[/img][/url]
[url=https://orangepix.is/image/vsQ0S][img]https://orangepix.is/images/2021/06/24/3160677991ce78d8829dd5c734b9bd08.md.png[/img][/url] ]]>
Behemoth 2021 HDRip XviD AC3-EVO http://glodls.to/torrent.php?id=11620437 http://glodls.to/torrent.php?id=11620437 Thu, 24 Jun 2021 15:22:49 +0800 Movies
Torrent Downloaded From ProstyleX
For More Exclusive Stuff Visit Us [url=https://prostylex.org]https://prostylex.org[/url]

https://www.imdb.com/title/tt11146072/

RELEASE: Behemoth.2021.HDRip.XviD.AC3-EVO

SOURCE: WORM

ViDEO: 2 000 kb/s

RESOLUTiON: 720x392

RUNTiME: 1 h 28 min

SUBTiTLES: No.

AUDiO: 192 kb/s AC-3 2 channels

LANGUAGE: ENGLiSH

ENCODER: eSc

SPECIAL THANKS TO: BOSS_HITMAN + DdHD + KING_DVD + Ach + Mr. Spy + Warm + MUSE

NOTES: Enjoy.

[url=https://orangepix.is/image/vsm0s][img]https://orangepix.is/images/2021/06/24/80fb2315f82da48309b144689c2c3db8.md.png[/img][/url]
[url=https://orangepix.is/image/vswl4][img]https://orangepix.is/images/2021/06/24/1d8983864a23dbd125ba6493ab00106c.md.png[/img][/url]
[url=https://orangepix.is/image/vsvfe][img]https://orangepix.is/images/2021/06/24/53b2d027c3c3aa2116bf7132fa04ae42.md.png[/img][/url]
[url=https://orangepix.is/image/vs299][img]https://orangepix.is/images/2021/06/24/7d2ce529a6e184ef3e322a0c9c6b0fcf.md.png[/img][/url] ]]>
Two Point Hospital v 1 25 69431 [Game folder] http://glodls.to/torrent.php?id=11620433 http://glodls.to/torrent.php?id=11620433 Thu, 24 Jun 2021 15:16:37 +0800 Games
Year of release: 30 August 2018
Genre: Simulation / Licenses / 2018
Developer: Two Point Studios
Publisher: SEGA
Publication type: Folder with the game
Interface language: Russian, English, French, Italian, German, Spanish, Polish, Chinese (ex.) , Chinese (trad.), br. Portuguese
Voice language: English, German, Chinese

System requirements:
Operating system: Windows 7 64-bit
Processor: Intel Core i3 6100 or AMD FX-4350
RAM: 4 GB
Video card: NVIDIA Geforce GT 1030, 2GB (Legacy: NVIDIA GeForce GTX 460), AMD RX550, 2GB (Legacy: AMD Radeon HD 6850), Integrated: Intel HD Graphics 630
Free hard disk space: 9 GB

DESCRIPTION:
 Build luxurious hospitals, treat outlandish diseases and deal with unreliable employees, expanding the coverage of your healthcare facility in Two Summits County.

Game version: 1.25.69431

Installation:
Download to a non-system folder on your hard drive without Cyrillic along the way.
Launch the game from the  TPH .exe file .
Play. The language changes in the game menu.

[youtube]https://www.youtube.com/watch?v=_h2Z2mGNIb0[/youtube][/center]
]]>
CARRION v 1 0 5 (47974) [GOG] http://glodls.to/torrent.php?id=11620432 http://glodls.to/torrent.php?id=11620432 Thu, 24 Jun 2021 15:16:34 +0800 Games
Year of release: 23 July 2020
Genre: Action / Adventure / 2020
Developer: Phobia Game Studio
Publisher: Devolver Digital
Publication type: Digital license GOG.com
Interface language: Russian, Deutsch, English, Português do Brasil, français, polski, 中文 (一), 中文 (繁體), 日本語, 한국어
Voice language: English

System requirements:
Operating system: Windows 7 or higher (x64)
Processor: 2 cores, 2 GHz
RAM: 1014 MB
Video card: OpenGL 3.0
Free space on hard disk: 500 MB

DESCRIPTION:
CARRION is a horror game in which you will find yourself in the role of a predator, an amorphous creature of unknown origin. Hunt down and devour everyone involved in your imprisonment, spreading fear and panic in every corner of the laboratory. Grow, evolve and acquire more and more crushing abilities on your way to freedom and bloody retribution.  

Additional content:
Soundtrack (FLAC)
Soundtrack (mp3)
DLC "Greatest Time of the Year"  - already included in the installer.
Game version: 1.0.5 (47974) / in the menu: 1.0.5-RELEASE-602-g54e439d7

Installation:
Run, install, play.
The language is selected in the menu.

[youtube]https://www.youtube.com/watch?v=67_P8CA2z1c[/youtube][/center]
]]>
Space Haven v 0 12 6 [GOG] (Early access) http://glodls.to/torrent.php?id=11620431 http://glodls.to/torrent.php?id=11620431 Thu, 24 Jun 2021 15:16:32 +0800 Games
Year of release: Early access
Genre: Strategy / Simulation
Developer: Bugbyte Ltd.
Publisher: Bugbyte Ltd.
Publication type: Digital license GOG.com
Interface language: Russian, Deutsch, English, Português do Brasil, español, français, italiano, polski, český, 中文 (家), 日本語, 한국어
Voice language: No

System requirements:
Operating system: Windows 7 and higher (x64)
Processor: 1.8 GHz
RAM: 1 GB
Video card: 128 MB, OpenGL 2.0 compatible
Free hard disk space: 250 MB

DESCRIPTION:
Assemble a team and go into space in search of a new home. Build spaceships, optimize your ecosystem, keep an eye on your crew and explore the universe in this space colony simulator!

Additional content:
Soundtrack (FLAC)
Soundtrack (mp3)

Game version:  0.12.6 (47893)

Installation:
Run the installer, install the game.
Play

[youtube]https://www.youtube.com/watch?v=va7XjJk-05o[/youtube][/center]
]]>
Red Solstice 2 Survivors v 1 2 [Portable] http://glodls.to/torrent.php?id=11620430 http://glodls.to/torrent.php?id=11620430 Thu, 24 Jun 2021 15:16:30 +0800 Games
Year of release: June 17, 2021
Genre: RPG / Strategy / Licenses
Developer: Ironward
Publisher: 505 Games
Publication type: Portable version in the archive
Interface language: Russian, English, Chinese (simpl.), German, French, Italian, Spanish, Korean, br. Portuguese, Chinese (trad.), Japanese
Voice language: English

System requirements:
Operating system: Windows 7 or higher (x64)
Processor: Intel Core i5-2300 / AMD FX-4350
RAM: 6 GB
Video card: NVIDIA GeForce GTS 450 / AMD Radeon HD 5750, 1 GB
Free hard disk space: 8 GB
System requirements:
Operating system: Windows 10 (x64 only)
Processor: Intel Core i5-6600 / AMD Ryzen 5 2500X
RAM : 8 GB
Video card: nVIDIA GeForce GTX 1650 Super / GTX 1060 / Radeon R9 390X
Free hard disk space: 55 GB

DESCRIPTION:
Continuation of the popular game The Red Solstice. Develop your own strategy and apply it on the battlefield in real time! Will your fighting skills be enough to survive and save humanity from destruction?

Additional content:
1588821 = Red Solstice 2: Survivors - Thanatos Armor Skin
1604220 = Red Solstice 2: Survivors - Executor Armor Skin
Game version: 1.2

Installation:
Unpack the game folder from the archive to a non-system place on your hard disk, without Cyrillic along the way.
Run survivors .exe .
Play, the language changes in the menu.

[youtube]https://www.youtube.com/watch?v=tBDMuYoUN0w[/youtube][/center]
]]>
Why Women Kill S02E05 720p WEB H264-GGEZ http://glodls.to/torrent.php?id=11620412 http://glodls.to/torrent.php?id=11620412 Thu, 24 Jun 2021 14:57:41 +0800 TV
Torrent Downloaded From ProstyleX
For More Exclusive Stuff Visit Us [url=https://prostylex.org]https://prostylex.org[/url]

https://www.imdb.com/title/tt9054904/

File Name...........: why.women.kill.s02e05.720p.web.h264-ggez
Runtime.............: 48 min 44 s
File Size...........: 1 005.7 MiB
Format..............: Matroska
Video Bitrate.......: 2 885 kb/s

Video

Video Codec.........: AVC High@L3.1
Aspect Ratio........: 2.35:1
Resolution..........: 1280x544 pixels
Frame Rate..........: 24.000 FPS

Audio

Audio Codec.........: E-AC-3
Channels............: 6 channels
Sampling Rate.......: 48.0 kHz
Language............: en
Bitrate.............: 640 kb/s

[url=https://orangepix.is/image/vsFDc][img]https://orangepix.is/images/2021/06/24/1d3c7b18e160f1fd4ba36cf824dd55de.md.png[/img][/url]
[url=https://orangepix.is/image/vsPfr][img]https://orangepix.is/images/2021/06/24/868a4a8a3835a07c404b4d5311e47371.md.png[/img][/url]
[url=https://orangepix.is/image/vsp2H][img]https://orangepix.is/images/2021/06/24/efefd884e12cedb93c51f099eb074e0f.md.png[/img][/url]
[url=https://orangepix.is/image/vs13k][img]https://orangepix.is/images/2021/06/24/fc3235eda30d8a95838fa13c490b0a1d.md.png[/img][/url] ]]>
The Good Fight S05E01 720p WEB H264-PLZPROPER http://glodls.to/torrent.php?id=11620410 http://glodls.to/torrent.php?id=11620410 Thu, 24 Jun 2021 14:56:30 +0800 TV
Torrent Downloaded From ProstyleX
For More Exclusive Stuff Visit Us [url=https://prostylex.org]https://prostylex.org[/url]

https://www.imdb.com/title/tt5853176/

File Name...........: the.good.fight.s05e01.720p.web.h264-plzproper
Runtime.............: 50 min 35 s
File Size...........: 1.182 GiB
Format..............: Matroska
Video Bitrate.......: 3 346 kb/s

Video

Video Codec.........: AVC High@L4
Aspect Ratio........: 16:9
Resolution..........: 1280x720 pixels
Frame Rate..........: 23.976 (24000/1001) FPS

Audio

Audio Codec.........: AC-3
Channels............: 6 channels
Sampling Rate.......: 48.0 kHz
Language............: en
Bitrate.............: 384 kb/s

[url=https://orangepix.is/image/vfihx][img]https://orangepix.is/images/2021/06/24/edd9224e013075fcc39ba552e644783e.md.png[/img][/url]
[url=https://orangepix.is/image/vfZkN][img]https://orangepix.is/images/2021/06/24/9a5fdc6b5469a8bca1fa762f38273041.md.png[/img][/url]
[url=https://orangepix.is/image/vsf1v][img]https://orangepix.is/images/2021/06/24/bee081c5dc525e5747b875b700420611.md.png[/img][/url]
[url=https://orangepix.is/image/vssbG][img]https://orangepix.is/images/2021/06/24/ca6ebc3ee403ebfc944879c293d0915e.md.png[/img][/url] ]]>
The Blacklist S08E22 720p WEB H264-STRONTiUM http://glodls.to/torrent.php?id=11620408 http://glodls.to/torrent.php?id=11620408 Thu, 24 Jun 2021 14:55:32 +0800 TV
Torrent Downloaded From ProstyleX
For More Exclusive Stuff Visit Us [url=https://prostylex.org]https://prostylex.org[/url]

https://www.imdb.com/title/tt2741602/

File Name...........: The.Blacklist.S08E22.720p.WEB.H264-STRONTiUM
Runtime.............: 43 min 20 s
File Size...........: 1.833 GiB
Format..............: Matroska
Video Bitrate.......: 6 053 kb/s

Video

Video Codec.........: AVC High@L3.1
Aspect Ratio........: 16:9
Resolution..........: 1280x720 pixels
Frame Rate..........: 23.976 (24000/1001) FPS

Audio

Audio Codec.........: E-AC-3
Channels............: 6 channels
Sampling Rate.......: 48.0 kHz
Language............: en
Bitrate.............: 640 kb/s

[url=https://orangepix.is/image/vfy3M][img]https://orangepix.is/images/2021/06/24/3a685bffaf6a3e27b4aaee478dc57361.md.png[/img][/url]
[url=https://orangepix.is/image/vfq2l][img]https://orangepix.is/images/2021/06/24/e38ebc69d023b607262461a5f04064cd.md.png[/img][/url]
[url=https://orangepix.is/image/vfEyD][img]https://orangepix.is/images/2021/06/24/d678e7f2d5773261f2448f83790cca4c.md.png[/img][/url]
[url=https://orangepix.is/image/vfKXL][img]https://orangepix.is/images/2021/06/24/1a5e3f407a70c7a1c085227ee942e218.md.png[/img][/url] ]]>
Akon - Freedom (2008) Flac http://glodls.to/torrent.php?id=11620385 http://glodls.to/torrent.php?id=11620385 Thu, 24 Jun 2021 14:24:53 +0800 FLAC
Quality-Lossless
Release-2008
File Size-427 MB
Samplerate: 44100 Hz
Channels: 2
Bits per sample: 16
Codec: Flac

R&B Run Time 55;24




Album: Freedom
Artist: Akon

Tracklist:
01 Right Now (Na Na Na) - Akon (4:01)
02 Beautiful ft. Colby O'Donis and Kardinal Offishall - Akon (5:13)
03 Keep You Much Longer - Akon (4:21)
04 Troublemaker ft. Sweet Rush - Akon (3:57)
05 We Don't Care - Akon (4:16)
06 I'm So Paid ft. Lil Wayne and Young Jeezy - Akon (4:24)
07 Holla Holla ft. T-Pain - Akon (3:00)
08 Against The Grain ft Ray Lavender - Akon (4:04)
09 Be With You - Akon (3:51)
10 Sunny Day ft. Wyclef - Akon (5:13)
11 Birthmark - Akon (4:23)
12 Over The Edge - Akon (4:27)
13 Freedom - Akon (4:14) ]]>
Judge.Judy.S25E78.540p.WEB.x264-SunnyZ http://glodls.to/torrent.php?id=11620379 http://glodls.to/torrent.php?id=11620379 Thu, 24 Jun 2021 14:22:57 +0800 TV Complete name                  : Judge.Judy.S25E78.540p.WEB.x264-SunnyZ.mp4
Format                         : MPEG-4
Format profile                 : Base Media
Codec ID                       : isom
File size                      : 230 MiB
Duration                       : 19mn 55s
Overall bit rate mode          : Variable
Overall bit rate               : 1 613 Kbps
Writing application            : Lavf58.5.100

Video
ID                             : 1
Format                         : AVC
Format/Info                    : Advanced Video Codec
Format profile                 : Main@L3.1
Format settings, CABAC         : Yes
Format settings, ReFrames      : 5 frames
Codec ID                       : avc1
Codec ID/Info                  : Advanced Video Coding
Duration                       : 19mn 55s
Bit rate                       : 1 480 Kbps
Width                          : 960 pixels
Height                         : 540 pixels
Display aspect ratio           : 16:9
Frame rate mode                : Constant
Frame rate                     : 25.000 fps
Color space                    : YUV
Chroma subsampling             : 4:2:0
Bit depth                      : 8 bits
Scan type                      : Progressive
Bits/(Pixel*Frame)             : 0.114
Stream size                    : 211 MiB (92%)

Audio
ID                             : 2
Format                         : AAC
Format/Info                    : Advanced Audio Codec
Format profile                 : LC
Codec ID                       : 40
Duration                       : 19mn 55s
Bit rate mode                  : Variable
Bit rate                       : 126 Kbps
Maximum bit rate               : 153 Kbps
Channel(s)                     : 2 channels
Channel positions              : Front: L R
Sampling rate                  : 44.1 KHz
Compression mode               : Lossy
Stream size                    : 17.9 MiB (8%)


[img]https://i.imgur.com/tkhGr3M.jpg[/img] ]]>
Agnes - Dance Love Pop (2009) Flac http://glodls.to/torrent.php?id=11620376 http://glodls.to/torrent.php?id=11620376 Thu, 24 Jun 2021 14:22:20 +0800 FLAC
Quality-Lossless
Release-2009
File Size-435 MB
Samplerate: 44100 Hz
Channels: 2
Bits per sample: 16
Codec: Flac

Pop Run Time 55;28




Album: Dance Love Pop
Artist: Agnes

Tracklist:
01 Release Me - Agnes (4:16)
02 I Need You Now - Agnes (4:37)
03 On And On - Agnes (3:11)
04 Secret Love - Agnes (3:32)
05 Sometimes I Forget - Agnes (4:16)
06 You Rain - Agnes (3:38)
07 Big Blue Wall - Agnes (3:16)
08 Love Love Love - Agnes (3:02)
09 How Do You Know - Agnes (3:35)
10 Love Me Senseless - Agnes (4:33)
11 If I Could Build My Whole World Around You (Duet With Erik Hassle) - Agnes (2:50)
12 Release Me (Acoustic Version) - Agnes (3:07)
13 I Need You Now (Original) - Agnes (3:07)
14 On and On (Acoustic Version) - Agnes (3:51)
15 Big Blue Wall (Original) - Agnes (4:36) ]]>
Veronique Gayot - Animal (2021) Flac http://glodls.to/torrent.php?id=11620371 http://glodls.to/torrent.php?id=11620371 Thu, 24 Jun 2021 14:19:09 +0800 FLAC
Quality-Lossless
Release-1995
File Size-299 MB
Samplerate: 44100 Hz
Channels: 2
Bits per sample: 16
Codec: Flac

Rock Run Time 42.56




Album: Animal
Artist: Veronique Gayot

Tracklist:
1 Wicked Shot - Veronique Gayot (4:17)
2 Big Black Mama Style - Veronique Gayot (3:27)
3 In the Hand of the Blues - Veronique Gayot (7:20)
4 Let'S Go Crazy - Veronique Gayot (3:29)
5 Love Is a Shelter - Veronique Gayot (3:51)
6 Animal - Veronique Gayot (4:39)
7 Good Blues on the Radio - Veronique Gayot (3:31)
8 No Second Hand Kind of Woman - Veronique Gayot (3:54)
9 Easy Rider - Veronique Gayot (4:17)
10 My Daddy Was a Sailor - Veronique Gayot (4:10) ]]>
Tracy Chapman - New Beginning (1995) Flac http://glodls.to/torrent.php?id=11620368 http://glodls.to/torrent.php?id=11620368 Thu, 24 Jun 2021 14:17:00 +0800 FLAC
Quality-Lossless
Release-1995
File Size-367 MB
Samplerate: 44100 Hz
Channels: 2
Bits per sample: 16
Codec: Flac

Folk Rock Run Time 1.04.37




Album: New Beginning
Artist: Tracy Chapman

Tracklist:
1 Heaven's Here On Earth - Tracy Chapman (5:24)
2 New Beginning - Tracy Chapman (5:33)
3 Smoke and Ashes - Tracy Chapman (6:40)
4 Cold Feet - Tracy Chapman (5:41)
5 At This Point In My Life - Tracy Chapman (5:09)
6 The Promise - Tracy Chapman (5:28)
7 The Rape Of The World - Tracy Chapman (7:11)
8 Tell It Like It Is - Tracy Chapman (6:05)
9 Give Me One Reason - Tracy Chapman (4:32)
10 Remember The Tinman - Tracy Chapman (5:45)
11 I'm Ready - Tracy Chapman (7:09) ]]>
Lionel Richie - Louder Than Words (1996) (2015 Remastered) Flac http://glodls.to/torrent.php?id=11620365 http://glodls.to/torrent.php?id=11620365 Thu, 24 Jun 2021 14:14:03 +0800 FLAC
Quality-Lossless
Release-1996
File Size-414 MB
Samplerate: 44100 Hz
Channels: 2
Bits per sample: 16
Codec: Flac

R&B Run Time 1.01.05




Album: Louder Than Words
Artist: Lionel Richie

Tracklist:
1 Piece Of Love - Lionel Richie (4:04)
2 Still In Love - Lionel Richie (4:33)
3 I Wanna Take You Down - Lionel Richie (5:00)
4 Can't Get Over You - Lionel Richie (4:32)
5 Change - Lionel Richie (5:01)
6 Nothing Else Matters - Lionel Richie (4:33)
7 Ordinary Girl - Lionel Richie (5:02)
8 Say I Do - Lionel Richie (4:58)
9 Paradise - Lionel Richie (4:59)
10 Don't Wanna Lose You - Lionel Richie (4:59)
11 Lovers At First Sight - Lionel Richie (6:57)
12 Climbing - Lionel Richie (6:27) ]]>
Eloise - Somewhere In-Between (2021) Flac http://glodls.to/torrent.php?id=11620362 http://glodls.to/torrent.php?id=11620362 Thu, 24 Jun 2021 14:11:02 +0800 FLAC
Quality-Lossless
Release-2021
File Size-125 MB
Samplerate: 44100 Hz
Channels: 2
Bits per sample: 16
Codec: Flac

R&B Run Time 23.11




Album: Somewhere In-Between
Artist: Eloise

Tracklist:
1 Bienvenue - Eloise (0:16)
2 Hungover - Eloise (3:37)
3 Enough - Eloise (2:57)
4 Trick of the Moon - Eloise (2:00)
5 Intertwined - Eloise (2:42)
6 Who's She - Eloise (3:19)
7 BAMO - Eloise (1:57)
8 Wanderlust - Eloise (3:07)
9 Lines - Eloise (3:16) ]]>
Deborah Harry - KooKoo (1981) Flac http://glodls.to/torrent.php?id=11620357 http://glodls.to/torrent.php?id=11620357 Thu, 24 Jun 2021 14:06:53 +0800 FLAC
Quality-Lossless
Release-1981
File Size-329 MB
Samplerate: 44100 Hz
Channels: 2
Bits per sample: 16
Codec: Flac

Pop Run Time 48.50




Album: KooKoo
Artist: Deborah Harry

Tracklist:
01 Jump Jump - Debbie Harry (4:05)
02 The Jam Was Moving - Debbie Harry (3:00)
03 Chrome - Debbie Harry (4:18)
04 Surrender - Debbie Harry (3:37)
05 Inner City Spillover - Debbie Harry (5:04)
06 Backfired - Debbie Harry (4:54)
07 Now I Know You Know - Debbie Harry (5:39)
08 Under Arrest - Debbie Harry (2:59)
09 Military Rap - Debbie Harry (3:51)
10 Oasis - Debbie Harry (5:00)
11 Backfired (Dance Version) - Debbie Harry (6:23) ]]>
The Bold Type S05E05 720p WEB H264-CAKES http://glodls.to/torrent.php?id=11620342 http://glodls.to/torrent.php?id=11620342 Thu, 24 Jun 2021 13:43:24 +0800 TV
Torrent Downloaded From ProstyleX
For More Exclusive Stuff Visit Us [url=https://prostylex.org]https://prostylex.org[/url]

https://www.imdb.com/title/tt6116060/

File Name...........: the.bold.type.s05e05.720p.web.h264-cakes
Runtime.............: 42 min 3 s
File Size...........: 1.766 GiB
Format..............: Matroska
Video Bitrate.......: 6 011 kb/s

Video

Video Codec.........: AVC High@L3.2
Aspect Ratio........: 16:9
Resolution..........: 1280x720 pixels
Frame Rate..........: 23.976 (24000/1001) FPS

Audio

Audio Codec.........: AAC
Channels............: 2 channels
Sampling Rate.......: 48.0 kHz
Language............: en
Bitrate.............:

[url=https://orangepix.is/image/vfWd6][img]https://orangepix.is/images/2021/06/24/7bb7348a02b1ef575e2b205b831d4217.md.png[/img][/url]
[url=https://orangepix.is/image/vf7hO][img]https://orangepix.is/images/2021/06/24/8fa8d350075766c35e4920a535be850c.md.png[/img][/url]
[url=https://orangepix.is/image/vfjbS][img]https://orangepix.is/images/2021/06/24/e79dbd7be65d250a73c0c45672885480.md.png[/img][/url]
[url=https://orangepix.is/image/vfhp8][img]https://orangepix.is/images/2021/06/24/97a0bac3109a84e7ea80fa19b9f077f6.md.png[/img][/url] ]]>
MasterChef US S11E04 1080p WEB h264-BAE http://glodls.to/torrent.php?id=11620340 http://glodls.to/torrent.php?id=11620340 Thu, 24 Jun 2021 13:42:25 +0800 TV
Torrent Downloaded From ProstyleX
For More Exclusive Stuff Visit Us [url=https://prostylex.org]https://prostylex.org[/url]

https://www.imdb.com/title/tt1694423/

File Name...........: MasterChef.US.S11E04.1080p.WEB.h264-BAE
Runtime.............: 42 min 11 s
File Size...........: 1.489 GiB
Format..............: Matroska
Video Bitrate.......: 5 052 kb/s

Video

Video Codec.........: AVC High@L4
Aspect Ratio........: 16:9
Resolution..........: 1920x1 080 pixels
Frame Rate..........: 23.976 FPS

Audio

Audio Codec.........: AAC
Channels............: 2 channels
Sampling Rate.......: 48.0 kHz
Language............: en
Bitrate.............: 127 kb/s

[url=https://orangepix.is/image/vfevZ][img]https://orangepix.is/images/2021/06/24/9ce2dd1d426f7edac2986c5baac9be1d.md.png[/img][/url]
[url=https://orangepix.is/image/vfug3][img]https://orangepix.is/images/2021/06/24/40288a5f4c6586a802496d8de491d50c.md.png[/img][/url]
[url=https://orangepix.is/image/vf5Oy][img]https://orangepix.is/images/2021/06/24/24de7eff1a4ae5da5d8ce0dc68ccff56.md.png[/img][/url]
[url=https://orangepix.is/image/vfDym][img]https://orangepix.is/images/2021/06/24/a52833b975bb9bf9dcd4590b3669bfb8.md.png[/img][/url] ]]>
Kung Fu 2021 S01E09 720p WEB h264-GOSSIP http://glodls.to/torrent.php?id=11620338 http://glodls.to/torrent.php?id=11620338 Thu, 24 Jun 2021 13:42:03 +0800 TV
Torrent Downloaded From ProstyleX
For More Exclusive Stuff Visit Us [url=https://prostylex.org]https://prostylex.org[/url]

https://www.imdb.com/title/tt7475590/

File Name...........: Kung.Fu.2021.S01E09.720p.WEB.h264-GOSSIP
Runtime.............: 41 min 3 s
File Size...........: 1.125 GiB
Format..............: Matroska
Video Bitrate.......: 3 923 kb/s

Video

Video Codec.........: AVC High@L3.1
Aspect Ratio........: 2.000
Resolution..........: 1280x640 pixels
Frame Rate..........: 23.976 (24000/1001) FPS

Audio

Audio Codec.........: E-AC-3
Channels............: 6 channels
Sampling Rate.......: 48.0 kHz
Language............: en
Bitrate.............: 640 kb/s

[url=https://orangepix.is/image/vf3bs][img]https://orangepix.is/images/2021/06/24/44d5e0970e980517b411d74f0ea6392e.md.png[/img][/url]
[url=https://orangepix.is/image/vfgp4][img]https://orangepix.is/images/2021/06/24/3bc40bdcd6cd93a938282baad0c22b81.md.png[/img][/url]
[url=https://orangepix.is/image/vfYue][img]https://orangepix.is/images/2021/06/24/f1336298da7a65de533188de735b39e7.md.png[/img][/url]
[url=https://orangepix.is/image/vfVN9][img]https://orangepix.is/images/2021/06/24/3bd4386521843c0435256f4666f63cef.md.png[/img][/url] ]]>
In The Dark 2019 S03E01 720p WEB h264-GOSSIP http://glodls.to/torrent.php?id=11620337 http://glodls.to/torrent.php?id=11620337 Thu, 24 Jun 2021 13:39:36 +0800 TV
Torrent Downloaded From ProstyleX
For More Exclusive Stuff Visit Us [url=https://prostylex.org]https://prostylex.org[/url]

https://www.imdb.com/title/tt7772602/

File Name...........: In.The.Dark.2019.S03E01.720p.WEB.h264-GOSSIP
Runtime.............: 41 min 24 s
File Size...........: 1.177 GiB
Format..............: Matroska
Video Bitrate.......: 4 069 kb/s

Video

Video Codec.........: AVC High@L3.1
Aspect Ratio........: 16:9
Resolution..........: 1280x720 pixels
Frame Rate..........: 23.976 (24000/1001) FPS

Audio

Audio Codec.........: E-AC-3
Channels............: 6 channels
Sampling Rate.......: 48.0 kHz
Language............: en
Bitrate.............: 640 kb/s

[url=https://orangepix.is/image/vfdqh][img]https://orangepix.is/images/2021/06/24/c79f665800bb86cc7527c230633acc5b.md.png[/img][/url]
[url=https://orangepix.is/image/vfzOJ][img]https://orangepix.is/images/2021/06/24/fe187cd26187fb6ef40728032d5041da.md.png[/img][/url]
[url=https://orangepix.is/image/vf6dp][img]https://orangepix.is/images/2021/06/24/880878cfdc08f22a62be0cf41916b531.md.png[/img][/url]
[url=https://orangepix.is/image/vfaB5][img]https://orangepix.is/images/2021/06/24/43147f787d6be6668e08d44e8470d644.md.png[/img][/url] ]]>
DAVE S02E03 720p WEB h264-GOSSIP http://glodls.to/torrent.php?id=11620336 http://glodls.to/torrent.php?id=11620336 Thu, 24 Jun 2021 13:38:54 +0800 TV
Torrent Downloaded From ProstyleX
For More Exclusive Stuff Visit Us [url=https://prostylex.org]https://prostylex.org[/url]

https://www.imdb.com/title/tt8531222/

File Name...........: DAVE.S02E03.720p.WEB.h264-GOSSIP
Runtime.............: 30 min 14 s
File Size...........: 1.283 GiB
Format..............: Matroska
Video Bitrate.......: 6 074 kb/s

Video

Video Codec.........: AVC High@L3.1
Aspect Ratio........: 16:9
Resolution..........: 1280x720 pixels
Frame Rate..........: 23.976 (23976/1000) FPS

Audio

Audio Codec.........: E-AC-3
Channels............: 6 channels
Sampling Rate.......: 48.0 kHz
Language............: en
Bitrate.............: 640 kb/s

[url=https://orangepix.is/image/vflur][img]https://orangepix.is/images/2021/06/24/babe50e95901d752a604e4614deeafaa.md.png[/img][/url]
[url=https://orangepix.is/image/vfIiH][img]https://orangepix.is/images/2021/06/24/def7cc80cd40dafd3a8dbf445e057f3c.md.png[/img][/url]
[url=https://orangepix.is/image/vfQvk][img]https://orangepix.is/images/2021/06/24/5841153555448b9fc3ee0a5203ca7b9a.md.png[/img][/url]
[url=https://orangepix.is/image/vfSgU][img]https://orangepix.is/images/2021/06/24/a81504ff467bab20bb4200bd2e00b7cf.md.png[/img][/url] ]]>
Honey Hayes - Little Horny Bandit (06 24 21) http://glodls.to/torrent.php?id=11620323 http://glodls.to/torrent.php?id=11620323 Thu, 24 Jun 2021 12:53:46 +0800 Adult XXX https://olarixas.xyz/img-60d40e129f007.html

Duration: 00:38:59
Video codec: H.264 / AVC / MPEG-4 AVC / MPEG-4 part 10; Video: 640x360, 16:9, 29.97fps, 1.34Mbps
Audio codec: AAC (Advanced Audio Coding); Audio: 94Kbps, 2 channels (stereo)

[img]https://olarixas.xyz/upload/big/2021/06/24/60d40e12886a9.jpeg[/img] ]]>
50 Assorted Magazines - June 24 2021 http://glodls.to/torrent.php?id=11620321 http://glodls.to/torrent.php?id=11620321 Thu, 24 Jun 2021 12:51:58 +0800 Books
[size=5][b]50 Magazines | PDF | English | 2.73 GB [/b][/size]

-------------------------------------------------------------
-------------------------------------------------------------

[size=5][b][url=https://4kw.in/2/350.html]List of Magazines[/url][/b][/size]

-------------------------------------------------------------
-------------------------------------------------------------
[size=5]
[b][url=https://4kw.in/2/351.html]PREVIEW 1[/url][/b]

[b][url=https://4kw.in/2/352.html]PREVIEW 2[/url][/b]

[b][url=https://4kw.in/2/353.html]PREVIEW 3[/url][/b]

[b][url=https://4kw.in/2/354.html]PREVIEW 4[/url][/b]
[/size]
[url=https://4kw.in/2/353.html][img]https://4kw.in/2/353-1.jpg[/img][/url]



]]>
Honey Hayes - Little Horny Bandit (06 24 21) http://glodls.to/torrent.php?id=11620320 http://glodls.to/torrent.php?id=11620320 Thu, 24 Jun 2021 12:51:48 +0800 Adult XXX https://olarixas.xyz/img-60d409067906b.html

Duration: 00:38:59
Video codec: H.264 / AVC / MPEG-4 AVC / MPEG-4 part 10; Video: 1280x720, 16:9, 29.97fps, 5.72Mbps
Audio codec: AAC (Advanced Audio Coding); Audio: 94Kbps, 2 channels (stereo)

[img]https://olarixas.xyz/upload/big/2021/06/24/60d4090655d2c.jpeg[/img] ]]>
Howard Stern Sirius Xm Mp3 Wed Jun 06-23 2021 (ETTV) 320 kbps Beats⭐ http://glodls.to/torrent.php?id=11620289 http://glodls.to/torrent.php?id=11620289 Thu, 24 Jun 2021 12:09:58 +0800 Other
[center][img]https://i.postimg.cc/0yy2ry6n/x-IGr-U98-Fny.jpg[/img][/center]
[center][img]https://i.postimg.cc/vBVmM21d/howard-stern-jpg.jpg[/img][/center]
[center][color=green]




Complete name
Howard Stern_ Sirius.Xm Mp3 _Wed _Jun 06-23_2021 (ETTV) 320_kbps Beats⭐
Format : MPEG Audio
File size : 595 MiB
Duration : 4 h 19 min
Overall bit rate mode : Constant
Overall bit rate : 320 kb/s
Writing library : LAME3.100


[/color][/center]

[center][img]https://i.postimg.cc/Vsh1YmL4/Capturell.png[/img][/center]
[center][img]https://i.postimg.cc/j24TnDJ5/lAOOb7Z.png[/img][/center]
[center][img]https://i.postimg.cc/K8CXgvxB/200.gif[/img][/center]
[center][img]https://i.postimg.cc/ZRVzjW8V/cVOY2E8.gif[/img][/center]
[center][img]https://i.postimg.cc/8C2S500k/Ex42siZ.jpg[/img][/center] ]]>
Pamela Rios - Masturbation master class (06 24 21) http://glodls.to/torrent.php?id=11620264 http://glodls.to/torrent.php?id=11620264 Thu, 24 Jun 2021 11:37:16 +0800 Adult XXX https://olarixas.xyz/img-60d3fb549e284.html

Duration: 00:27:59
Video codec: H.264 / AVC / MPEG-4 AVC / MPEG-4 part 10; Video: 1280x720, 16:9, 30fps, 2.39Mbps
Audio codec: AAC (Advanced Audio Coding); Audio: 193Kbps, 2 channels (stereo)

[img]https://olarixas.xyz/upload/big/2021/06/24/60d3fb547d4e5.jpeg[/img] ]]>
Lina Luxa, Romy Indy - Mission aborted (06 23 21) http://glodls.to/torrent.php?id=11620254 http://glodls.to/torrent.php?id=11620254 Thu, 24 Jun 2021 10:51:46 +0800 Adult XXX https://olarixas.xyz/img-60d3ec9236962.html

Duration: 00:37:50
Video codec: H.264 / AVC / MPEG-4 AVC / MPEG-4 part 10; Video: 1280x720, 16:9, 25fps, 2.46Mbps
Audio codec: AAC (Advanced Audio Coding); Audio: 125Kbps, 2 channels (stereo)

[img]https://olarixas.xyz/upload/big/2021/06/24/60d3ec9215c5c.jpeg[/img] ]]>
Red Solstice 2 Survivors V1 2 REPACK-KaOs http://glodls.to/torrent.php?id=11620253 http://glodls.to/torrent.php?id=11620253 Thu, 24 Jun 2021 10:30:56 +0800 Games [img]https://images2.imgbox.com/92/53/1ZbSuRls_o.jpg[/img]

[quote]Sequel to the best-seller ​The Red Solstice​. Plan your strategy and infiltrate a real-time tactical battlefield - alone or with up to 7 squad members. Can you demonstrate the combat prowess to survive and secure a future for humanity?[/quote]

[img]https://images2.imgbox.com/62/79/KZMhT9Xr_o.jpg[/img]

[img]https://images2.imgbox.com/4f/ba/kCjJYZn7_o.png[/img]
[/center] ]]>
Madi Laine - Sucked By Stepmommy (06 23 21) http://glodls.to/torrent.php?id=11620242 http://glodls.to/torrent.php?id=11620242 Thu, 24 Jun 2021 10:06:52 +0800 Adult XXX https://olarixas.xyz/img-60d3e5cbdb9ee.html

Duration: 00:15:47
Video codec: H.264 / AVC / MPEG-4 AVC / MPEG-4 part 10; Video: 1280x720, 16:9, 59.93fps, 4.65Mbps
Audio codec: AAC (Advanced Audio Coding); Audio: 128Kbps, 2 channels (stereo)

[img]https://olarixas.xyz/upload/big/2021/06/24/60d3e5cbc69a4.jpeg[/img] ]]>
BBC Newsnight 23 June 2021 MP4 + subs BigJ0554 http://glodls.to/torrent.php?id=11620236 http://glodls.to/torrent.php?id=11620236 Thu, 24 Jun 2021 09:52:25 +0800 TV
[b]Newsnight 23/June/2021[/b]

The day's important national and international news stories.

Video: 540p MP4 H264 @1.6Mbps
Audio: AAC 2ch @100Kbps
Subtitles: English .SRT ]]>
Diana Grace - I Swear I Love My Husband (06 24 21) http://glodls.to/torrent.php?id=11620235 http://glodls.to/torrent.php?id=11620235 Thu, 24 Jun 2021 09:51:54 +0800 Adult XXX https://olarixas.xyz/img-60d3d4a02954d.html

Duration: 00:31:30
Video codec: H.264 / AVC / MPEG-4 AVC / MPEG-4 part 10; Video: 1280x720, 16:9, 23.98fps, 1.46Mbps
Audio codec: AAC (Advanced Audio Coding); Audio: 107Kbps, 2 channels (stereo)

[img]https://olarixas.xyz/upload/big/2021/06/24/60d3d4a010cdf.jpeg[/img] ]]>
HARDtalk - Fawad Chaudhry, Pakistan s Information Minister MP4 + subs BigJ0554 http://glodls.to/torrent.php?id=11620231 http://glodls.to/torrent.php?id=11620231 Thu, 24 Jun 2021 09:47:30 +0800 TV
[b]BBC HARDtalk - Fawad Chaudhry, Pakistan's Information Minister[/b]

Who holds the reins of power in Pakistan? Prime Minister Imran Khan leads a government elected in 2018; if Pakistan is a genuine democracy then that is where power resides. But many government critics say the military dictates much that happens inside the country, particularly when it comes to silencing opposition to the covert power of the so-called deep state.

Stephen Sackur speaks to Pakistan's information minister Fawad Chaudhry. What happened to Imran Khan's pledge to deliver clean, transparent governance?

Video: 540p MP4 H264 @1.6Mbps
Audio: AAC 2ch @100Kbps
Subtitles: English .SRT ]]>
Lya Missy, Anastasia Brokelyn - Share Fat Cock (06 23 21) http://glodls.to/torrent.php?id=11620229 http://glodls.to/torrent.php?id=11620229 Thu, 24 Jun 2021 09:38:48 +0800 Adult XXX https://olarixas.xyz/img-60d3d67e1b8bd.html

Duration: 00:50:00
Video codec: H.264 / AVC / MPEG-4 AVC / MPEG-4 part 10; Video: 960x540, 16:9, 29.97fps, 1.52Mbps
Audio codec: AAC (Advanced Audio Coding); Audio: 366Kbps, 2 channels (stereo)

[img]https://olarixas.xyz/upload/big/2021/06/24/60d3d67df1748.jpeg[/img] ]]>
Victoria Lobov - Double Teaming Victoria (06 24 21) http://glodls.to/torrent.php?id=11620227 http://glodls.to/torrent.php?id=11620227 Thu, 24 Jun 2021 09:36:46 +0800 Adult XXX https://olarixas.xyz/img-60d3d51f72423.html

Duration: 00:36:20
Video codec: H.264 / AVC / MPEG-4 AVC / MPEG-4 part 10; Video: 1280x720, 16:9, 23.98fps, 1.29Mbps
Audio codec: AAC (Advanced Audio Coding); Audio: 124Kbps, 2 channels (stereo)

[img]https://olarixas.xyz/upload/big/2021/06/24/60d3d51f50722.jpeg[/img] ]]>