Download Romantico avventuriero-The Gunfighter (1950) ITA-ENG Ac3 2 0 BDRip 1080p H264 [ArMor] torrent - GloDLS
Torrent Details For "Romantico avventuriero-The Gunfighter (1950) ITA-ENG Ac3 2 0 BDRip 1080p H264 [ArMor]"

Romantico avventuriero-The Gunfighter (1950) ITA-ENG Ac3 2 0 BDRip 1080p H264 [ArMor]

To download this torrent, you need a BitTorrent client: Vuze or BTGuard
Download this torrent
Download using Magnet Link

Health:
Seeds: 0
Leechers: 0
Completed:
Last Checked: 16-10-2020 21:15:47

Uploader Reputation points : 704
External: Torrent






Write a Review for the Uploader:   0   Say Thanks with one good review:
Share on Facebook


Details
Name:Romantico avventuriero-The Gunfighter (1950) ITA-ENG Ac3 2 0 BDRip 1080p H264 [ArMor]
Description:







Regista: Henry King
Genere: Avventura
Anno: 1950
Paese: USA
Durata: 85 min
Distribuzione: FOX



Junnie Ringo è un bandito celebre in tutto il West per la sua inarrivabile abilità di tiratore. Ringo vive da anni alla macchia, ma è stanco di quella vita e vorrebbe sistemarsi in qualche angolo tranquillo. Con tali propositi si mette in cammino, mosso dal desiderio di rivedere sua moglie e il suo figliolo. Fermatosi a bere un bicchiere in un villaggio di cow-boys, viene riconosciuto da un intraprendente giovanotto, che lo provoca e lo mette in condizioni di doverlo uccidere per propria difesa. Il contegno di Ringo in questo episodio non merita alcun biasimo, ma l'ucciso aveva tre fratelli, che giurano di vendicarlo.

Notorious gunfighter Jimmy Ringo rides into town to find his true love, who doesn't want to see him. He hasn't come looking for trouble, but trouble finds him around every corner.













General
Unique ID                                : 121334430265334773077259849787676640375 (0x5B482947E5BC3CE2743A88AB99A14477)
Complete name                            : Romantico avventuriero-The Gunfighter (1950) ITA-ENG Ac3 2.0 BDRip 1080p H264 [ArMor].mkv
Format                                   : Matroska
Format version                           : Version 4
File size                                : 3.81 GiB
Duration                                 : 1 h 24 min
Overall bit rate                         : 6 454 kb/s
Encoded date                             : UTC 2020-10-14 12:08:19
Writing application                      : HandBrake 1.3.3 2020061300
Writing library                          : Lavf58.29.100
ErrorDetectionType                       : Per level 1

Video
ID                                       : 1
Format                                   : AVC
Format/Info                              : Advanced Video Codec
Format profile                           : [email protected]
Format settings                          : CABAC / 4 Ref Frames
Format settings, CABAC                   : Yes
Format settings, Reference frames        : 4 frames
Codec ID                                 : V_MPEG4/ISO/AVC
Duration                                 : 1 h 24 min
Bit rate                                 : 5 942 kb/s
Width                                    : 1 436 pixels
Height                                   : 1 080 pixels
Display aspect ratio                     : 4:3
Frame rate mode                          : Constant
Frame rate                               : 23.976 (24000/1001) FPS
Color space                              : YUV
Chroma subsampling                       : 4:2:0
Bit depth                                : 8 bits
Scan type                                : Progressive
Bits/(Pixel*Frame)                       : 0.160
Stream size                              : 3.51 GiB (92%)
Writing library                          : x264 core 157 r2935 545de2f
Encoding settings                        : cabac=1 / ref=2 / deblock=1:0:0 / analyse=0x1:0x111 / me=hex / subme=6 / psy=1 / psy_rd=1.00:0.00 / mixed_ref=1 / me_range=16 / chroma_me=1 / trellis=1 / 8x8dct=0 / cqm=0 / deadzone=21,11 / fast_pskip=1 / chroma_qp_offset=-2 / threads=18 / lookahead_threads=3 / sliced_threads=0 / nr=0 / decimate=1 / interlaced=0 / bluray_compat=0 / constrained_intra=0 / bframes=3 / b_pyramid=2 / b_adapt=1 / b_bias=0 / direct=1 / weightb=1 / open_gop=0 / weightp=1 / keyint=240 / keyint_min=24 / scenecut=40 / intra_refresh=0 / rc_lookahead=30 / rc=crf / mbtree=1 / crf=20.0 / qcomp=0.60 / qpmin=0 / qpmax=69 / qpstep=4 / vbv_maxrate=20000 / vbv_bufsize=25000 / crf_max=0.0 / nal_hrd=none / filler=0 / ip_ratio=1.40 / aq=1:1.00
Default                                  : Yes
Forced                                   : No
Color range                              : Limited
Color primaries                          : BT.709
Transfer characteristics                 : BT.709
Matrix coefficients                      : BT.709

Audio #1
ID                                       : 2
Format                                   : AC-3
Format/Info                              : Audio Coding 3
Commercial name                          : Dolby Digital
Codec ID                                 : A_AC3
Duration                                 : 1 h 24 min
Bit rate mode                            : Constant
Bit rate                                 : 192 kb/s
Channel(s)                               : 2 channels
Channel layout                           : L R
Sampling rate                            : 48.0 kHz
Frame rate                               : 31.250 FPS (1536 SPF)
Compression mode                         : Lossy
Stream size                              : 116 MiB (3%)
Title                                    : DVD
Language                                 : Italian
Service kind                             : Complete Main
Default                                  : Yes
Forced                                   : No

Audio #2
ID                                       : 3
Format                                   : AC-3
Format/Info                              : Audio Coding 3
Commercial name                          : Dolby Digital
Codec ID                                 : A_AC3
Duration                                 : 1 h 24 min
Bit rate mode                            : Constant
Bit rate                                 : 192 kb/s
Channel(s)                               : 2 channels
Channel layout                           : L R
Sampling rate                            : 48.0 kHz
Frame rate                               : 31.250 FPS (1536 SPF)
Compression mode                         : Lossy
Stream size                              : 116 MiB (3%)
Title                                    : DTS
Language                                 : English
Service kind                             : Complete Main
Default                                  : No
Forced                                   : No


YouTube Video:
Category:Movies
Language:Italian  Italian
Total Size:3.81 GB
Info Hash:B3EFE5A7FA7A6B65F4C7B93089F9B7F74D59BA71
Added By:ArMor1 Verified Uploader
Date Added:2020-10-17 04:15:44
Torrent Status:Torrent Verified


Ratings:Not Yet Rated (Log in to rate it)


Tracker:
udp://tracker.coppersurfer.tk:6969/announce

This Torrent also has backup trackers
URLSeedersLeechersCompleted
udp://tracker.coppersurfer.tk:6969/announce000
udp://tracker.opentrackr.org:1337/announce000
udp://tracker.leechers-paradise.org:6969/announce000
udp://tracker.zer0day.to:1337/announce000
udp://eddie4.nl:6969/announce000
udp://9.rarbg.me:2790/announce000
udp://9.rarbg.to:2730/announce000
udp://9.rarbg.com:2710/announce000
udp://tracker.pirateparty.gr:6969/announce000
udp://p4p.arenabg.com:1337/announce000
http://ipv4.tracker.harry.lu/announce000
http://ipv4.tracker.harry.lu:80/announce000
http://t.nyaatracker.com/announce000
http://t.nyaatracker.com:80/announce000
http://tracker.torrentyorg.pl:80/announce000


File List: 





Comments
No comments still posted