Download Resident Evil Apocalypse 2004 BRRip 2160p UHD HDR MultiSubs DD5 1 gerald99 torrent - GloDLS
Torrent Details For "Resident Evil Apocalypse 2004 BRRip 2160p UHD HDR MultiSubs DD5 1 gerald99"

Resident Evil Apocalypse 2004 BRRip 2160p UHD HDR MultiSubs DD5 1 gerald99

To download this torrent, you need a BitTorrent client: Vuze or BTGuard
Download this torrent
Download using Magnet Link

Health:
Seeds: 20
Leechers: 8
Completed:
Last Checked: 21-05-2022 12:15:44

Uploader Reputation points : 1095





Write a Review for the Uploader:   10   Say Thanks with one good review:
Share on Facebook


Details
Name:Resident Evil Apocalypse 2004 BRRip 2160p UHD HDR MultiSubs DD5 1 gerald99
Description:


https://www.imdb.com/title/tt0318627/
2004 R 1h 34m Action Horror.Sci-Fi 6.1/10
Stars Milla Jovovich Sienna Guillory Eric Mab
Tagline You're all going to die
Additional Subs: Arabic, Chinese, Danish, Dutch, Finnish, French, Greek, Hindi, Hungarian,  Indonesian, Italian, Japanese, Korean, Norwegian, Polish, Portuguses, Russian, Spanish, Swedish, Thai.

Storyline
Alice awakens from a terrible sleep to find her worst fears realized--the bloodthirsty Undead, which she and the now-annihilated squad of elite military fought to destroy, have been unleashed on the city that surrounds the secret facility of the Umbrella Corporation. Discovering she was an Umbrella experiment, Alice has been bio-genetically enhanced with new strengths, senses and dexterity--and she will need them. In the heart of the ravaged Raccoon City, a small group of uninfected people, including Jill Valentine, a recently demoted member of Raccoon City's elite Special Tactics and Rescue Services team, and Umbrella Corporation Security Officer Carlos Oliveira, fight for their lives against swarms of Undead and the deadlier and faster Lickers. Running out of luck and resources, the group is rescued by Alice, and they begin to wage an exhilarating battle to survive and escape before the Umbrella Corporation erases its experiment from the face of the earth. Their only hope lies somewhere within Raccoon City--Dr Charles Ashford, one of the leading scientists for the Umbrella Corporation, will help Alice and the others escape the city safely--if they find his daughter. Angie Ashford became separated from her father and now hides in fear. Alice, Jill and Carlos will have to fight their way through an army of Undead to save her. All the while, a secret weapon code-named Nemesis has been experimentally altered with greater modifications than Alice and has been programmed to track and destroy them. They will need all their strengths and skills to fight the battle of their lives against the mindless evil that has infected the city and the powerful forces that unleashed it on mankind.

Format                                   : Matroska
Format version                           : Version 4
File size                                : 7.10 GiB
Duration                                 : 1 h 37 min
Overall bit rate                         : 10.4 Mb/s
Movie name                               : Resident Evil: Apocalypse
Encoded date                             : UTC 2022-05-20 17:42:12
Writing application                      : mkvmerge v67.0.0 ('Under Stars') 64-bit
Writing library                          : libebml v1.4.2 + libmatroska v1.6.4
Cover                                    : Yes
Attachments                              : cover.jpg

Video
ID                                       : 1
Format                                   : HEVC
Format/Info                              : High Efficiency Video Coding
Format profile                           : Main [email protected]@High
HDR format                               : SMPTE ST 2086, HDR10 compatible
Codec ID                                 : V_MPEGH/ISO/HEVC
Duration                                 : 1 h 37 min
Bit rate                                 : 9 603 kb/s
Width                                    : 3 840 pixels
Height                                   : 2 160 pixels
Display aspect ratio                     : 16:9
Frame rate mode                          : Constant
Frame rate                               : 23.976 (24000/1001) FPS
Color space                              : YUV
Chroma subsampling                       : 4:2:0 (Type 2)
Bit depth                                : 10 bits
Bits/(Pixel*Frame)                       : 0.048
Stream size                              : 6.56 GiB (92%)
Title                                    : Resident Evil: Apocalypse
Default                                  : Yes
Forced                                   : No
Color range                              : Limited
Color primaries                          : BT.2020
Transfer characteristics                 : PQ
Matrix coefficients                      : BT.2020 non-constant
Mastering display color primaries        : Display P3
Mastering display luminance              : min: 0.0050 cd/m2, max: 4000 cd/m2
Maximum Content Light Level              : 992 cd/m2
Maximum Frame-Average Light Level        : 781 cd/m2

Audio
ID                                       : 2
ID in the original source medium         : 4352 (0x1100)
Format                                   : AC-3
Format/Info                              : Audio Coding 3
Commercial name                          : Dolby Digital
Codec ID                                 : A_AC3
Duration                                 : 1 h 37 min
Bit rate mode                            : Constant
Bit rate                                 : 640 kb/s
Channel(s)                               : 6 channels
Channel layout                           : L R C LFE Ls Rs
Sampling rate                            : 48.0 kHz
Frame rate                               : 31.250 FPS (1536 SPF)
Bit depth                                : 16 bits
Compression mode                         : Lossy
Stream size                              : 448 MiB (6%)
Title                                    : Dolby Digital 5.1
Language                                 : English
Service kind                             : Complete Main
Default                                  : No
Forced                                   : No
Original source medium                   : Blu-ray

Text #1
ID                                       : 3
ID in the original source medium         : 4768 (0x12A0)
Format                                   : PGS
Muxing mode                              : zlib
Codec ID                                 : S_HDMV/PGS
Codec ID/Info                            : Picture based subtitle format used on BDs/HD-DVDs
Duration                                 : 1 h 36 min
Bit rate                                 : 22.3 kb/s
Count of elements                        : 1869
Stream size                              : 15.4 MiB (0%)
Language                                 : English
Default                                  : No
Forced                                   : No
Original source medium                   : Blu-ray

YouTube Video:   
Category:Movies
Language:English  English
Total Size:7.10 GB
Info Hash:F700691274606F3397B907883BF2D0C57CBB2AF7
Added By:gerald99 VIP
Date Added:2022-05-21 19:08:02
Torrent Status:Torrent Verified


Ratings:Not Yet Rated (Log in to rate it)


Tracker:
udp://tracker.opentrackr.org:1337/announce

This Torrent also has backup trackers
URLSeedersLeechersCompleted
udp://tracker.opentrackr.org:1337/announce311
udp://fe.dealclub.de:6969/announce211
udp://bt2.archive.org:6969/announce311
udp://movies.zsw.ca:6969/announce211
udp://tracker.zerobytes.xyz:1337/announce311
udp://tracker.0x.tf:6969/announce211
udp://tracker.altrosky.nl:6969/announce211
udp://open.stealth.si:80/announce311


File List: 





Comments
No comments still posted