Download Pushpa The Rise Part 1 (2021) UNCUT 720p WEB-HDRip Dual Audio [Hindi ORG (DD5 1) + Telugu] x264 AAC ESub By Full4Movies mkv torrent - GloDLS
Login
Username:
Password:
Remember Me:
[Signup]
[Recover Account]
Friends
Angie Torrents
Friendly Site

Pirateiro
Friendly site

Free Courses Online
Friendly site

ETTV
Friendly site

ProStyleX
Friendly site

KaranPC
Friendly site

P2PDL.com
Friendly site

OneHack
Friendly site

IGGGames
Friendly site

HTML tutorial
Torrent Details For "Pushpa The Rise Part 1 (2021) UNCUT 720p WEB-HDRip Dual Audio [Hindi ORG (DD5 1) + Te..."

Pushpa The Rise Part 1 (2021) UNCUT 720p WEB-HDRip Dual Audio [Hindi ORG (DD5 1) + Te...

To download this torrent, you need a BitTorrent client: Vuze or BTGuard
Download this torrent
Download using Magnet Link

Health:
Seeds: 199
Leechers: 229
Completed: 797 
Last Checked: 14-01-2022 15:24:26

Uploader Reputation points : 7300





Write a Review for the Uploader:   10   Say Thanks with one good review:
Share on Facebook


Details
Name:Pushpa The Rise Part 1 (2021) UNCUT 720p WEB-HDRip Dual Audio [Hindi ORG (DD5 1) + Te...
Description:


Visit Us = https://www.full4movies.wtf/



General
Complete name                  : Pushpa The Rise Part 1 (2021) UNCUT 720p WEB-HDRip Dual Audio [Hindi ORG (DD5.1) + Telugu] x264 AAC ESub By Full4Movies.mkv
Format                         : Matroska
Format version                 : Version 4
File size                      : 1.50 GiB
Duration                       : 2 h 55 min
Overall bit rate               : 1 225 kb/s
Encoded date                   : UTC 2022-01-13 20:16:58 / UTC
Writing application            : mkvmerge v8.3.0 ('Over the Horizon') 64bit
Writing library                : libebml v1.3.1 + libmatroska v1.4.2 / Lavf55.12.0
Attachments                    : 383845052472320.jpg

Video
ID                             : 1
Format                         : AVC
Format/Info                    : Advanced Video Codec
Format profile                 : [email protected]
Format settings                : CABAC / 4 Ref Frames
Format settings, CABAC         : Yes
Format settings, Reference fra : 4 frames
Codec ID                       : V_MPEG4/ISO/AVC
Duration                       : 2 h 55 min
Bit rate                       : 999 kb/s
Width                          : 1 280 pixels
Height                         : 534 pixels
Display aspect ratio           : 2.40:1
Original display aspect ratio  : 2.40:1
Frame rate mode                : Constant
Frame rate                     : 24.000 FPS
Color space                    : YUV
Chroma subsampling             : 4:2:0
Bit depth                      : 8 bits
Scan type                      : Progressive
Bits/(Pixel*Frame)             : 0.061
Stream size                    : 1.23 GiB (82%)
Writing library                : x264 core 142 r2479 dd79a61
Default                        : Yes
Forced                         : No
Color range                    : Limited
Color primaries                : BT.709
Transfer characteristics       : BT.709
Matrix coefficients            : BT.709

Audio #1
ID                             : 2
Format                         : AAC LC SBR
Format/Info                    : Advanced Audio Codec Low Complexity with Spectral Band Replication
Commercial name                : HE-AAC
Format settings                : NBC
Codec ID                       : A_AAC-5
Duration                       : 2 h 55 min
Bit rate                       : 128 kb/s
Channel(s)                     : 6 channels
Channel layout                 : C L R Ls Rs LFE
Sampling rate                  : 48.0 kHz
Frame rate                     : 23.438 FPS (2048 SPF)
Compression mode               : Lossy
Delay relative to video        : -105 ms
Stream size                    : 161 MiB (10%)
Language                       : Hindi
Default                        : Yes
Forced                         : Yes

Audio #2
ID                             : 3
Format                         : AAC LC SBR
Format/Info                    : Advanced Audio Codec Low Complexity with Spectral Band Replication
Commercial name                : HE-AAC
Format settings                : NBC
Codec ID                       : A_AAC-5
Duration                       : 2 h 55 min
Bit rate                       : 96.0 kb/s
Channel(s)                     : 2 channels
Channel layout                 : L R
Sampling rate                  : 48.0 kHz
Frame rate                     : 23.438 FPS (2048 SPF)
Compression mode               : Lossy
Delay relative to video        : -105 ms
Stream size                    : 121 MiB (8%)
Language                       : Telugu
Default                        : No
Forced                         : No

Text
ID                             : 4
Format                         : ASS
Codec ID                       : S_TEXT/ASS
Codec ID/Info                  : Advanced Sub Station Alpha
Duration                       : 2 h 50 min
Bit rate                       : 105 b/s
Count of elements              : 2138
Compression mode               : Lossless
Stream size                    : 132 KiB (0%)
Language                       : English
Default                        : No
Forced                         : No

Screen Shoots








YouTube Video:
Category:Movies
Language:Dubs/Dual Audio
Total Size:1.50 GB
Info Hash:49F00B092ECE532A707F4AF57EE2A7B526032D93
Added By:india4movie Verified Uploader
Date Added:2022-01-14 04:48:11
Torrent Status:Torrent Verified


Ratings:Not Yet Rated (Log in to rate it)


Tracker:
udp://tracker.opentrackr.org:1337/announce

This Torrent also has backup trackers
URLSeedersLeechersCompleted
udp://tracker.opentrackr.org:1337/announce5256333
udp://9.rarbg.me:2790/announce111365
udp://9.rarbg.to:2800/announce111365
http://tracker.dler.org:6969/announce100
udp://tracker.internetwarriors.net:1337/announce333689
udp://open.stealth.si:80/announce242769
udp://fasttracker.foreverpirates.co:6969/announce000
udp://tracker.uw0.xyz:6969/announce000
udp://tracker.dler.org:6969/announce020
udp://opentor.org:2710/announce162032
udp://open.stealth.si:80/announce242769
udp://9.rarbg.me:2980/announce111365
udp://tracker.openbittorrent.com:80/announce152210


File List: 





Comments
No comments still posted