Download Prost Mortem - Die letzte Runde / Season 1 (2019) Rus Ger (Rus Sub) WEBRip ViruseProject torrent - GloDLS
Login
Username:
Password:
Remember Me:
[Signup]
[Recover Account]
Friends
Angie Torrents
Friendly Site

Pirateiro
Friendly site

Free Courses Online
Friendly site

ETTV
Friendly site

ProStyleX
Friendly site

KaranPC
Friendly site

P2PDL.com
Friendly site

OneHack
Friendly site

IGGGames
Friendly site

HTML tutorial
Torrent Details For "Prost Mortem - Die letzte Runde / Season 1 (2019) Rus Ger (Rus Sub) WEBRip ViruseProj..."

Prost Mortem - Die letzte Runde / Season 1 (2019) Rus Ger (Rus Sub) WEBRip ViruseProj...

To download this torrent, you need a BitTorrent client: Vuze or BTGuard
Download this torrent
Download using Magnet Link

Health:
Seeds: 29
Leechers: 1
Completed: 370 
Last Checked: 20-10-2021 01:56:53

Uploader Reputation points : 108





Write a Review for the Uploader:   0   Say Thanks with one good review:
Share on Facebook


Details
Name:Prost Mortem - Die letzte Runde / Season 1 (2019) Rus Ger (Rus Sub) WEBRip ViruseProj...
Description:


https://www.youtube.com/watch?v=vIsxlImOlfM

https://www.imdb.com/title/tt11107874/






Video
ID                                       : 0
Format                                   : MPEG-4 Visual
Format profile                           : Advanced [email protected]
Format settings                          : BVOP3
Format settings, BVOP                    : 3
Format settings, QPel                    : No
Format settings, GMC                     : No warppoints
Format settings, Matrix                  : Default (H.263)
Codec ID                                 : XVID
Codec ID/Hint                            : XviD
Duration                                 : 22 min 50 s
Bit rate                                 : 1 499 kb/s
Width                                    : 720 pixels
Height                                   : 406 pixels
Display aspect ratio                     : 16:9
Frame rate                               : 25.000 FPS
Color space                              : YUV
Chroma subsampling                       : 4:2:0
Bit depth                                : 8 bits
Scan type                                : Progressive
Compression mode                         : Lossy
Bits/(Pixel*Frame)                       : 0.205
Stream size                              : 245 MiB (85%)
Writing library                          : XviD 69

Audio #1
ID                                       : 1
Format                                   : MPEG Audio
Format version                           : Version 1
Format profile                           : Layer 3
Format settings                          : Joint stereo / MS Stereo
Codec ID                                 : 55
Codec ID/Hint                            : MP3
Duration                                 : 22 min 50 s
Bit rate mode                            : Variable
Bit rate                                 : 128 kb/s
Channel(s)                               : 2 channels
Sampling rate                            : 48.0 kHz
Frame rate                               : 41.667 FPS (1152 SPF)
Compression mode                         : Lossy
Stream size                              : 20.9 MiB (7%)
Alignment                                : Aligned on interleaves
Interleave, duration                     : 40  ms (1.00 video frame)
Interleave, preload duration             : 504  ms

Audio #2
ID                                       : 2
Format                                   : MPEG Audio
Format version                           : Version 1
Format profile                           : Layer 3
Format settings                          : Joint stereo / MS Stereo
Codec ID                                 : 55
Codec ID/Hint                            : MP3
Duration                                 : 22 min 50 s
Source duration                          : 22 min 50 s
Bit rate mode                            : Constant
Bit rate                                 : 128 kb/s
Channel(s)                               : 2 channels
Sampling rate                            : 48.0 kHz
Compression mode                         : Lossy
Stream size                              : 20.9 MiB (7%)
Alignment                                : Split across interleaves
Interleave, duration                     : 40  ms (1.00 video frame)
Interleave, preload duration             : 500  ms
Writing library                          : LAME3.100

YouTube Video:   
Category:TV
Language:Russian  Russian
Total Size:1.09 GB
Info Hash:7B970E3CA8AEC164E5FFBC802D155AE7551DCDC9
Added By:viruse UploaderTV Uploader
Date Added:2021-10-11 20:51:45
Torrent Status:Torrent Verified by Prom3th3uS Super AdministratorMovie PirateVIP on 12th October, 2021


Ratings:Not Yet Rated (Log in to rate it)


Tracker:
udp://opentor.org:2710/announce

This Torrent also has backup trackers
URLSeedersLeechersCompleted
udp://opentor.org:2710/announce3167
udp://tracker.torrent.eu.org:451/announce4054
udp://tracker.cyberia.is:6969/announce000
udp://exodus.desync.com:6969/announce4062
udp://tracker.moeking.me:6969/announce200
udp://tracker.opentrackr.org:1337/announce2053
udp://tracker.tiny-vps.com:6969/announce205
udp://open.stealth.si:80/announce5069
udp://tracker.iamhansen.xyz:2000/announce000
udp://tracker.theoks.net:6969/announce4060
udp://retracker.lanta-net.ru:2710/announce000
udp://open.demonii.si:1337/announce000
udp://tracker.uw0.xyz:6969/announce000
udp://ipv4.tracker.harry.lu:80/announce300
udp://tracker.coppersurfer.tk:6969/announce000


File List: 





Comments
No comments still posted