Download Prost Mortem - Die letzte Runde / Season 1 (2019) Rus Ger (Rus Sub) 1080p WEBRip ViruseProject torrent - GloDLS
Login
Username:
Password:
Remember Me:
[Signup]
[Recover Account]
Friends
Angie Torrents
Friendly Site

Pirateiro
Friendly site

Free Courses Online
Friendly site

ETTV
Friendly site

ProStyleX
Friendly site

KaranPC
Friendly site

P2PDL.com
Friendly site

OneHack
Friendly site

IGGGames
Friendly site

HTML tutorial
Torrent Details For "Prost Mortem - Die letzte Runde / Season 1 (2019) Rus Ger (Rus Sub) 1080p WEBRip Viru..."

Prost Mortem - Die letzte Runde / Season 1 (2019) Rus Ger (Rus Sub) 1080p WEBRip Viru...

To download this torrent, you need a BitTorrent client: Vuze or BTGuard
Download this torrent
Download using Magnet Link

Health:
Seeds: 31
Leechers: 2
Completed: 572 
Last Checked: 24-10-2021 01:58:20

Uploader Reputation points : 108





Write a Review for the Uploader:   0   Say Thanks with one good review:
Share on Facebook


Details
Name:Prost Mortem - Die letzte Runde / Season 1 (2019) Rus Ger (Rus Sub) 1080p WEBRip Viru...
Description:


https://www.youtube.com/watch?v=vIsxlImOlfM

https://www.imdb.com/title/tt11107874/






Video
ID                                       : 1
Format                                   : AVC
Format/Info                              : Advanced Video Codec
Format profile                           : [email protected]
Format settings                          : CABAC / 4 Ref Frames
Format settings, CABAC                   : Yes
Format settings, Reference frames        : 4 frames
Codec ID                                 : V_MPEG4/ISO/AVC
Duration                                 : 22 min 50 s
Bit rate                                 : 4 322 kb/s
Width                                    : 1 918 pixels
Height                                   : 1 080 pixels
Display aspect ratio                     : 16:9
Frame rate mode                          : Constant
Frame rate                               : 25.000 FPS
Color space                              : YUV
Chroma subsampling                       : 4:2:0
Bit depth                                : 8 bits
Scan type                                : Progressive
Bits/(Pixel*Frame)                       : 0.083
Stream size                              : 706 MiB (92%)
Language                                 : English
Default                                  : Yes
Forced                                   : No
Color range                              : Limited
Color primaries                          : BT.709
Transfer characteristics                 : BT.709
Matrix coefficients                      : BT.709

Audio #1
ID                                       : 2
Format                                   : AC-3
Format/Info                              : Audio Coding 3
Commercial name                          : Dolby Digital
Codec ID                                 : A_AC3
Duration                                 : 22 min 51 s
Bit rate mode                            : Constant
Bit rate                                 : 192 kb/s
Channel(s)                               : 2 channels
Channel layout                           : L R
Sampling rate                            : 48.0 kHz
Frame rate                               : 31.250 FPS (1536 SPF)
Compression mode                         : Lossy
Stream size                              : 31.4 MiB (4%)
Title                                    : ViruseProject
Language                                 : Russian
Service kind                             : Complete Main
Default                                  : Yes
Forced                                   : No

Audio #2
ID                                       : 3
Format                                   : AAC LC
Format/Info                              : Advanced Audio Codec Low Complexity
Codec ID                                 : A_AAC-2
Duration                                 : 22 min 50 s
Bit rate                                 : 192 kb/s
Channel(s)                               : 2 channels
Channel layout                           : L R
Sampling rate                            : 48.0 kHz
Frame rate                               : 46.875 FPS (1024 SPF)
Compression mode                         : Lossy
Stream size                              : 30.9 MiB (4%)
Language                                 : German
Default                                  : No
Forced                                   : No

Text
ID                                       : 4
Format                                   : UTF-8
Codec ID                                 : S_TEXT/UTF8
Codec ID/Info                            : UTF-8 Plain Text
Duration                                 : 21 min 58 s
Bit rate                                 : 80 b/s
Count of elements                        : 308
Stream size                              : 13.0 KiB (0%)
Title                                    : ViruseProject
Language                                 : Russian
Default                                  : No
Forced                                   : No

YouTube Video:   
Category:TV
Language:Russian  Russian
Total Size:2.83 GB
Info Hash:CB2E9DF9BA0185942790E403C0FE0C1FA81F7D7B
Added By:viruse UploaderTV Uploader
Date Added:2021-10-11 20:49:27
Torrent Status:Torrent Verified by Prom3th3uS Super AdministratorMovie PirateVIP on 12th October, 2021


Ratings:Not Yet Rated (Log in to rate it)


Tracker:
udp://opentor.org:2710/announce

This Torrent also has backup trackers
URLSeedersLeechersCompleted
udp://opentor.org:2710/announce41104
udp://tracker.torrent.eu.org:451/announce4084
udp://tracker.cyberia.is:6969/announce000
udp://exodus.desync.com:6969/announce4094
udp://tracker.moeking.me:6969/announce300
udp://tracker.opentrackr.org:1337/announce4058
udp://tracker.tiny-vps.com:6969/announce0118
udp://open.stealth.si:80/announce50105
udp://tracker.iamhansen.xyz:2000/announce000
udp://tracker.theoks.net:6969/announce4096
udp://retracker.lanta-net.ru:2710/announce3013
udp://open.demonii.si:1337/announce000
udp://tracker.uw0.xyz:6969/announce000
udp://ipv4.tracker.harry.lu:80/announce000
udp://tracker.coppersurfer.tk:6969/announce000


File List: 





Comments
No comments still posted