Download Loki S01E01 Glorious Purpose WEB-DL XviD B4ND1T69 torrent - GloDLS
Torrent Details For "Loki S01E01 Glorious Purpose WEB-DL XviD B4ND1T69"

Loki S01E01 Glorious Purpose WEB-DL XviD B4ND1T69

To download this torrent, you need a BitTorrent client: Vuze or BTGuard
Download this torrent
Download using Magnet Link

Health:
Seeds: 487
Leechers: 135
Completed: 3,129 
Last Checked: 10-06-2021 14:59:25

Uploader Reputation points : 878
External: Torrent






Write a Review for the Uploader:   0   Say Thanks with one good review:
Share on Facebook
TV Info

Loki

The mercurial villain Loki resumes his role as the God of Mischief in a new series that takes place after the events of “Avengers: Endgame.”



Details
Name:Loki S01E01 Glorious Purpose WEB-DL XviD B4ND1T69
Description:
Loki.S01E01.Glorious.Purpose.WEB-DL.XviD.B4ND1T69



Stars: Tom Hiddleston, Owen Wilson, Sophia Di Martino

Plot/Story:
Glorious Purpose
Loki, the God of Mischief, finds himself out of time and in an unusual place and forced — against his godly disposition — to cooperate with others. Welcome to the TVA, y'all!

General
Complete name               : Loki.S01E01.Glorious.Purpose.WEB-DL.XviD.B4ND1T69.avi
Format                      : AVI
Format/Info                 : Audio Video Interleave
File size                   : 264 MiB
Duration                    : 51 min 30 s
Overall bit rate            : 717 kb/s
Subtitles                   : Yes...Included(HI)

Video
ID                          : 0
Format                      : MPEG-4 Visual
Format profile              : Advanced [email protected]
Format settings, BVOP       : 2
Format settings, QPel       : No
Format settings, GMC        : No warppoints
Format settings, Matrix     : Default (H.263)
Codec ID                    : XVID
Codec ID/Hint               : XviD
Duration                    : 51 min 30 s
Bit rate                    : 575 kb/s
Width                       : 640 pixels
Height                      : 360 pixels
Display aspect ratio        : 16:9
Frame rate                  : 24.000 FPS
Color space                 : YUV
Chroma subsampling          : 4:2:0
Bit depth                   : 8 bits
Scan type                   : Progressive
Compression mode            : Lossy
Bits/(Pixel*Frame)          : 0.104
Stream size                 : 212 MiB (80%)
Writing library             : XviD 64

Audio
ID                          : 1
Format                      : MPEG Audio
Format version              : Version 1
Format profile              : Layer 3
Codec ID                    : 55
Codec ID/Hint               : MP3
Duration                    : 51 min 30 s
Bit rate mode               : Constant
Bit rate                    : 128 kb/s
Channel(s)                  : 2 channels
Sampling rate               : 48.0 kHz
Compression mode            : Lossy
Stream size                 : 47.2 MiB (18%)
Alignment                   : Aligned on interleaves
Interleave, duration        : 24  ms (0.58 video frame)

Screenshots:







Please Seed For As Long As Possible
Or At Least 1:1 Ratio...Thanks
Enjoy Peeps
YouTube Video:   
Category:TV
Language:English  English
Total Size:264.02 MB
Info Hash:2092874E13A4C8233602F6033A6B2B5BA263C140
Added By:B4ND1T69 Verified UploaderMovie Pirate
Date Added:2021-06-09 23:33:08
Torrent Status:Torrent Verified


Ratings:Not Yet Rated (Log in to rate it)


Tracker:
udp://tracker.opentrackr.org:1337/announce

This Torrent also has backup trackers
URLSeedersLeechersCompleted
udp://tracker.opentrackr.org:1337/announce6428600
udp://exodus.desync.com:6969/announce4014244
udp://open.demonii.si:1337/announce000
udp://9.rarbg.to:2750/announce4910680
udp://open.stealth.si:80/announce5113272
udp://tracker.uw0.xyz:6969/announce473259
udp://tracker.tiny-vps.com:6969/announce4112142
udp://fasttracker.foreverpirates.co:6969/announce262100
udp://explodie.org:6969/announce2390
udp://tracker.cyberia.is:6969/announce000
udp://ipv4.tracker.harry.lu:80/announce22140
udp://opentracker.i2p.rocks:6969/announce4713338
udp://tracker.moeking.me:6969/announce353237
udp://opentor.org:2710/announce4211257
udp://tracker.dler.org:6969/announce030


File List: 





Comments
No comments still posted