Download Loki (2021) S01E01 720p [Hindi ORG + English] WEB-HDRip x264 (DD 5 1) AAC ESub By Full4Movies torrent - GloDLS
Torrent Details For " Loki (2021) S01E01 720p [Hindi ORG + English] WEB-HDRip x264 (DD 5 1) AAC ESub By Fu..."

Loki (2021) S01E01 720p [Hindi ORG + English] WEB-HDRip x264 (DD 5 1) AAC ESub By Fu...

To download this torrent, you need a BitTorrent client: Vuze or BTGuard
Download this torrent
Download using Magnet Link

Health:
Seeds: 570
Leechers: 845
Completed: 1,673 
Last Checked: 09-06-2021 18:14:23

Uploader Reputation points : 5779
External: Torrent






Write a Review for the Uploader:   5   Say Thanks with one good review:
Share on Facebook
TV Info

Save Me (2017) (KO)

A young girl coming to a small town with her family. And through tragic events getting involved with a religious cult.



Details
Name: Loki (2021) S01E01 720p [Hindi ORG + English] WEB-HDRip x264 (DD 5 1) AAC ESub By Fu...
Description:


Visit Us = https://www.full4movies.org/



General
Complete name                  : Loki (2021) S01E01 720p [Hindi ORG + English] WEB-HDRip x264 (DD 5.1) AAC ESub By Full4Movies.mkv
Format                         : Matroska
Format version                 : Version 4 / Version 2
File size                      : 526 MiB
Duration                       : 50 min 22 s
Overall bit rate               : 1 460 kb/s
Encoded date                   : UTC 2021-06-09 09:17:16
Writing application            : mkvmerge v8.3.0 ('Over the Horizon') 64bit
Writing library                : libebml v1.3.1 + libmatroska v1.4.2
Attachments                    : cooltext383845052472320.jpg

Video
ID                             : 1
Format                         : AVC
Format/Info                    : Advanced Video Codec
Format profile                 : [email protected]
Format settings, CABAC         : Yes
Format settings, RefFrames     : 4 frames
Codec ID                       : V_MPEG4/ISO/AVC
Duration                       : 50 min 22 s
Bit rate                       : 1 200 kb/s
Width                          : 1 280 pixels
Height                         : 536 pixels
Display aspect ratio           : 2.40:1
Frame rate mode                : Constant
Frame rate                     : 24.000 FPS
Color space                    : YUV
Chroma subsampling             : 4:2:0
Bit depth                      : 8 bits
Scan type                      : Progressive
Bits/(Pixel*Frame)             : 0.073
Stream size                    : 433 MiB (82%)
Writing library                : x264 core 142 r2479 dd79a61
Default                        : Yes
Forced                         : No
Color range                    : Limited
Color primaries                : BT.709
Transfer characteristics       : BT.709
Matrix coefficients            : BT.709

Audio #1
ID                             : 2
Format                         : AAC
Format/Info                    : Advanced Audio Codec
Format profile                 : HE-AAC / LC
Codec ID                       : A_AAC
Duration                       : 50 min 22 s
Bit rate                       : 160 kb/s
Channel(s)                     : 6 channels
Channel positions              : Front: L C R, Side: L R, LFE
Sampling rate                  : 48.0 kHz / 24.0 kHz
Frame rate                     : 23.438 FPS (1024 SPF)
Compression mode               : Lossy
Delay relative to video        : -105 ms
Stream size                    : 57.7 MiB (11%)
Language                       : Hindi
Default                        : Yes
Forced                         : No

Audio #2
ID                             : 3
Format                         : AAC
Format/Info                    : Advanced Audio Codec
Format profile                 : HE-AAC / LC
Codec ID                       : A_AAC
Duration                       : 50 min 22 s
Bit rate                       : 96.0 kb/s
Channel(s)                     : 2 channels
Channel positions              : Front: L R
Sampling rate                  : 48.0 kHz / 24.0 kHz
Frame rate                     : 23.438 FPS (1024 SPF)
Compression mode               : Lossy
Delay relative to video        : -105 ms
Stream size                    : 34.6 MiB (7%)
Language                       : English
Default                        : No
Forced                         : No

Text #1
ID                             : 4
Format                         : ASS
Codec ID                       : S_TEXT/ASS
Codec ID/Info                  : Advanced Sub Station Alpha
Duration                       : 50 min 5 s
Bit rate                       : 97 b/s
Count of elements              : 688
Compression mode               : Lossless
Stream size                    : 35.7 KiB (0%)
Title                          : ESub
Language                       : English
Default                        : No
Forced                         : No

Screen Shoots






YouTube Video:
Category:TV
Language:Dubs/Dual Audio
Total Size:526.06 MB
Info Hash:D2720E7B39D38326F089B4FAAA50C422AD828F87
Added By:india4movie Verified Uploader
Date Added:2021-06-09 17:58:34
Torrent Status:Torrent Verified


Ratings:Not Yet Rated (Log in to rate it)


Tracker:
udp://tracker.opentrackr.org:1337/announce

This Torrent also has backup trackers
URLSeedersLeechersCompleted
udp://tracker.opentrackr.org:1337/announce97167506
udp://tracker.cyberia.is:6969/announce000
udp://9.rarbg.me:2980/announce6391248
udp://open.stealth.si:80/announce4773122
udp://exodus.desync.com:6969/announce4871127
udp://tracker.moeking.me:6969/announce5145112
udp://explodie.org:6969/announce000
udp://tracker.openbittorrent.com:80/announce265310
udp://inferno.demonoid.is:3391/announce3941106
udp://tracker.torrent.eu.org:451/announce4775123
udp://ipv4.tracker.harry.lu:80/announce12590
udp://tracker.uw0.xyz:6969/announce5039137
udp://tracker.coppersurfer.tk:6969/announce000
udp://exodus.desync.com:6969/announce4871127
udp://tracker.tiny-vps.com:6969/announce426055


File List: 





Comments
No comments still posted