Download Loki (2021) S01E01 1080p [Hindi ORG + English] WEB-HDRip x264 (DD 5 1) AAC ESub By Full4Movies torrent - GloDLS
Torrent Details For " Loki (2021) S01E01 1080p [Hindi ORG + English] WEB-HDRip x264 (DD 5 1) AAC ESub By F..."

Loki (2021) S01E01 1080p [Hindi ORG + English] WEB-HDRip x264 (DD 5 1) AAC ESub By F...

To download this torrent, you need a BitTorrent client: Vuze or BTGuard
Download this torrent
Download using Magnet Link

Health:
Seeds: 666
Leechers: 663
Completed: 1,528 
Last Checked: 09-06-2021 18:14:37

Uploader Reputation points : 5779
External: Torrent






Write a Review for the Uploader:   5   Say Thanks with one good review:
Share on Facebook
TV Info

Save Me (2017) (KO)

A young girl coming to a small town with her family. And through tragic events getting involved with a religious cult.



Details
Name: Loki (2021) S01E01 1080p [Hindi ORG + English] WEB-HDRip x264 (DD 5 1) AAC ESub By F...
Description:


Visit Us = https://www.full4movies.org/



General
Complete name                  : Loki (2021) S01E01 1080p [Hindi ORG + English] WEB-HDRip x264 (DD 5.1) AAC ESub By Full4Movies.mkv
Format                         : Matroska
Format version                 : Version 4 / Version 2
File size                      : 1.01 GiB
Duration                       : 50 min 22 s
Overall bit rate               : 2 869 kb/s
Encoded date                   : UTC 2021-06-09 09:18:17
Writing application            : mkvmerge v8.3.0 ('Over the Horizon') 64bit
Writing library                : libebml v1.3.1 + libmatroska v1.4.2
Attachments                    : cooltext383845052472320.jpg

Video
ID                             : 1
Format                         : AVC
Format/Info                    : Advanced Video Codec
Format profile                 : [email protected]
Format settings, CABAC         : Yes
Format settings, RefFrames     : 4 frames
Codec ID                       : V_MPEG4/ISO/AVC
Duration                       : 50 min 22 s
Bit rate                       : 2 611 kb/s
Width                          : 1 920 pixels
Height                         : 804 pixels
Display aspect ratio           : 2.40:1
Frame rate mode                : Constant
Frame rate                     : 24.000 FPS
Color space                    : YUV
Chroma subsampling             : 4:2:0
Bit depth                      : 8 bits
Scan type                      : Progressive
Bits/(Pixel*Frame)             : 0.070
Stream size                    : 941 MiB (91%)
Writing library                : x264 core 148 r2708 86b7198
Default                        : Yes
Forced                         : No
Color range                    : Limited
Color primaries                : BT.709
Transfer characteristics       : BT.709
Matrix coefficients            : BT.709

Audio #1
ID                             : 2
Format                         : AAC
Format/Info                    : Advanced Audio Codec
Format profile                 : HE-AAC / LC
Codec ID                       : A_AAC
Duration                       : 50 min 22 s
Bit rate                       : 160 kb/s
Channel(s)                     : 6 channels
Channel positions              : Front: L C R, Side: L R, LFE
Sampling rate                  : 48.0 kHz / 24.0 kHz
Frame rate                     : 23.438 FPS (1024 SPF)
Compression mode               : Lossy
Stream size                    : 57.7 MiB (6%)
Language                       : Hindi
Default                        : Yes
Forced                         : No

Audio #2
ID                             : 3
Format                         : AAC
Format/Info                    : Advanced Audio Codec
Format profile                 : HE-AAC / LC
Codec ID                       : A_AAC
Duration                       : 50 min 22 s
Bit rate                       : 96.0 kb/s
Channel(s)                     : 2 channels
Channel positions              : Front: L R
Sampling rate                  : 48.0 kHz / 24.0 kHz
Frame rate                     : 23.438 FPS (1024 SPF)
Compression mode               : Lossy
Stream size                    : 34.6 MiB (3%)
Language                       : English
Default                        : No
Forced                         : No

Text #1
ID                             : 4
Format                         : ASS
Codec ID                       : S_TEXT/ASS
Codec ID/Info                  : Advanced Sub Station Alpha
Duration                       : 50 min 5 s
Bit rate                       : 97 b/s
Count of elements              : 688
Compression mode               : Lossless
Stream size                    : 35.7 KiB (0%)
Title                          : ESub
Language                       : English
Default                        : No
Forced                         : No

Screen Shoots






YouTube Video:
Category:TV
Language:Dubs/Dual Audio
Total Size:1.01 GB
Info Hash:EEA60AAC64850FE8CC5786A4E280FDDF9CA19EBA
Added By:india4movie Verified Uploader
Date Added:2021-06-09 18:01:58
Torrent Status:Torrent Verified


Ratings:Not Yet Rated (Log in to rate it)


Tracker:
udp://tracker.opentrackr.org:1337/announce

This Torrent also has backup trackers
URLSeedersLeechersCompleted
udp://tracker.opentrackr.org:1337/announce124149450
udp://tracker.cyberia.is:6969/announce000
udp://9.rarbg.me:2980/announce8980251
udp://open.stealth.si:80/announce5562125
udp://exodus.desync.com:6969/announce5158123
udp://tracker.moeking.me:6969/announce693687
udp://explodie.org:6969/announce000
udp://tracker.openbittorrent.com:80/announce585910
udp://inferno.demonoid.is:3391/announce4419103
udp://tracker.torrent.eu.org:451/announce4857120
udp://ipv4.tracker.harry.lu:80/announce16530
udp://tracker.uw0.xyz:6969/announce6132136
udp://tracker.coppersurfer.tk:6969/announce000
udp://exodus.desync.com:6969/announce5158123
udp://tracker.tiny-vps.com:6969/announce000


File List: 





Comments
No comments still posted