Download La battaglia di Midway (1976) ITA-ENG Ac3 5 1 BDRip 1080p H264 [ArMor] torrent - GloDLS
Login
Username:
Password:
Remember Me:
[Signup]
[Recover Account]
Friends
Angie Torrents
Friendly Site

Pirateiro
Friendly site

Free Courses Online
Friendly site

ETTV
Friendly site

KaranPC
Friendly site

P2PDL.com
Friendly site

OneHack
Friendly site

IGGGames
Friendly site

Torrent Details For "La battaglia di Midway (1976) ITA-ENG Ac3 5 1 BDRip 1080p H264 [ArMor]"

La battaglia di Midway (1976) ITA-ENG Ac3 5 1 BDRip 1080p H264 [ArMor]

To download this torrent, you need a BitTorrent client: Vuze or BTGuard
Download this torrent
Download using Magnet Link

Health:
Seeds: 0
Leechers: 0
Completed:
Last Checked: 27-09-2020 20:16:16

Uploader Reputation points : 738
External: Torrent






Write a Review for the Uploader:   0   Say Thanks with one good review:
Share on Facebook


Details
Name:La battaglia di Midway (1976) ITA-ENG Ac3 5 1 BDRip 1080p H264 [ArMor]
Description:







Regista: Jack Smight
Genere: Guerra, Storico
Anno: 1976
Paese: USA
Durata: 132 min
Distribuzione: CIC - CIC VIDEO



Ai primi di giugno del 1942 si svolgeva la battaglia aeronavale presso le isole Midway tra giapponesi e americani, che poneva termine alla fulminea espansione giapponese in tutto l'oriente e segnava l'inizio del contrattacco americano che avrebbe portato, il 2 settembre 1945, alla capitolazione del Giappone. Il film narra, in forma di diario, la preparazione strategica e tattica e poi lo svolgimento dello scontro, sia da parte delle forze preponderanti giapponesi, sia da parte di quelle americane, al momento in condizione di inferiorità perché non ancora rimarginate le devastanti ferite loro inflitte nell'improvviso attacco a Pearl Harbour di sette mesi prima.

A dramatization of the battle that was widely heralded as a turning point of the Pacific Theatre of World War II.












General
Unique ID                                : 212703441999285808256222459831978272183 (0xA005315CC972A0DEF93EA6AFBFDBA5B7)
Complete name                            : La battaglia di Midway (1976) ITA-ENG Ac3 5.1 BDRip 1080p H264 [ArMor].mkv
Format                                   : Matroska
Format version                           : Version 4
File size                                : 4.26 GiB
Duration                                 : 2 h 11 min
Overall bit rate                         : 4 639 kb/s
Encoded date                             : UTC 2020-08-03 20:06:20
Writing application                      : Lavf58.54.100
Writing library                          : Lavf58.54.100
ErrorDetectionType                       : Per level 1

Video
ID                                       : 1
Format                                   : AVC
Format/Info                              : Advanced Video Codec
Format profile                           : [email protected]
Format settings                          : CABAC / 2 Ref Frames
Format settings, CABAC                   : Yes
Format settings, Reference frames        : 2 frames
Codec ID                                 : V_MPEG4/ISO/AVC
Duration                                 : 2 h 11 min
Bit rate                                 : 4 000 kb/s
Width                                    : 1 920 pixels
Height                                   : 816 pixels
Display aspect ratio                     : 2.35:1
Frame rate mode                          : Constant
Frame rate                               : 23.976 (24000/1001) FPS
Color space                              : YUV
Chroma subsampling                       : 4:2:0
Bit depth                                : 8 bits
Scan type                                : Progressive
Bits/(Pixel*Frame)                       : 0.106
Stream size                              : 3.59 GiB (84%)
Writing library                          : x264 core 161 r3018
Encoding settings                        : cabac=1 / ref=2 / deblock=1:0:0 / analyse=0x1:0x131 / me=hex / subme=7 / psy=1 / psy_rd=1.00:0.00 / mixed_ref=0 / me_range=16 / chroma_me=1 / trellis=1 / 8x8dct=0 / cqm=0 / deadzone=21,11 / fast_pskip=1 / chroma_qp_offset=-2 / threads=18 / lookahead_threads=3 / sliced_threads=0 / nr=0 / decimate=1 / interlaced=0 / bluray_compat=0 / constrained_intra=0 / bframes=0 / weightp=2 / keyint=239 / keyint_min=23 / scenecut=40 / intra_refresh=0 / rc_lookahead=40 / rc=abr / mbtree=1 / bitrate=4000 / ratetol=1.0 / qcomp=0.60 / qpmin=10 / qpmax=69 / qpstep=4 / vbv_maxrate=4500 / vbv_bufsize=24000 / nal_hrd=none / filler=0 / ip_ratio=1.40 / aq=3:1.00
Language                                 : English
Default                                  : Yes
Forced                                   : No

Audio #1
ID                                       : 2
Format                                   : AC-3
Format/Info                              : Audio Coding 3
Commercial name                          : Dolby Digital
Codec ID                                 : A_AC3
Duration                                 : 2 h 11 min
Bit rate mode                            : Constant
Bit rate                                 : 192 kb/s
Channel(s)                               : 2 channels
Channel layout                           : L R
Sampling rate                            : 48.0 kHz
Frame rate                               : 31.250 FPS (1536 SPF)
Bit depth                                : 16 bits
Compression mode                         : Lossy
Stream size                              : 181 MiB (4%)
Title                                    : DVD
Writing library                          : Lavc58.105.100 ac3_fixed
Language                                 : Italian
Service kind                             : Complete Main
Default                                  : Yes
Forced                                   : No

Audio #2
ID                                       : 3
Format                                   : AC-3
Format/Info                              : Audio Coding 3
Commercial name                          : Dolby Digital
Codec ID                                 : A_AC3
Duration                                 : 2 h 11 min
Bit rate mode                            : Constant
Bit rate                                 : 448 kb/s
Channel(s)                               : 6 channels
Channel layout                           : L R C LFE Ls Rs
Sampling rate                            : 48.0 kHz
Frame rate                               : 31.250 FPS (1536 SPF)
Bit depth                                : 16 bits
Compression mode                         : Lossy
Stream size                              : 421 MiB (10%)
Title                                    : DTS
Writing library                          : Lavc58.105.100 ac3_fixed
Language                                 : English
Service kind                             : Complete Main
Default                                  : No
Forced                                   : No


YouTube Video:
Category:Movies
Language:Italian  Italian
Total Size:4.26 GB
Info Hash:2B99F7DCE7750A3799154B0372BD075BDD88261F
Added By:ArMor1 Verified Uploader
Date Added:2020-09-28 03:16:08
Torrent Status:Torrent Verified


Ratings:Not Yet Rated (Log in to rate it)


Tracker:
udp://tracker.coppersurfer.tk:6969/announce

This Torrent also has backup trackers
URLSeedersLeechersCompleted
udp://tracker.coppersurfer.tk:6969/announce000
udp://tracker.opentrackr.org:1337/announce000
udp://tracker.leechers-paradise.org:6969/announce000
udp://tracker.zer0day.to:1337/announce000
udp://eddie4.nl:6969/announce000
udp://9.rarbg.me:2790/announce000
udp://9.rarbg.to:2730/announce000
udp://9.rarbg.com:2710/announce000
udp://tracker.pirateparty.gr:6969/announce000
udp://p4p.arenabg.com:1337/announce000
http://ipv4.tracker.harry.lu/announce000
http://ipv4.tracker.harry.lu:80/announce000
http://t.nyaatracker.com/announce000
http://t.nyaatracker.com:80/announce000
http://tracker.torrentyorg.pl:80/announce000


File List: 





Comments
No comments still posted