Download Judge Judy - S25E023 torrent - GloDLS
Torrent Details For "Judge Judy - S25E023"

Judge Judy - S25E023

To download this torrent, you need a BitTorrent client: Vuze or BTGuard
Download this torrent
Download using Magnet Link

Health:
Seeds: 5
Leechers: 0
Completed: 63 
Last Checked: 09-04-2021 16:52:50

Uploader Reputation points : 234
External: Torrent






Write a Review for the Uploader:   0   Say Thanks with one good review:
Share on Facebook
TV Info

Judge Judy

This courtroom series stars former family court judge Judith Sheindlin. Each episode finds Judge Judy presiding over real small-claims cases inside a televised courtroom. Judge Judy brings her trademark wit and wisdom to the widely successful half-hour series where justice is dispensed at lightning speed.



Details
Name:Judge Judy - S25E023
Description:
General
Complete name                  : Judge Judy - S25E023.mp4
Format                         : MPEG-4
Format profile                 : Base Media
Codec ID                       : isom
File size                      : 228 MiB
Duration                       : 19mn 50s
Overall bit rate               : 1 609 Kbps
Writing application            : Lavf58.5.100

Video
ID                             : 1
Format                         : AVC
Format/Info                    : Advanced Video Codec
Format profile                 : [email protected]
Format settings, CABAC         : Yes
Format settings, ReFrames      : 5 frames
Codec ID                       : avc1
Codec ID/Info                  : Advanced Video Coding
Duration                       : 19mn 50s
Bit rate                       : 1 476 Kbps
Width                          : 960 pixels
Height                         : 540 pixels
Display aspect ratio           : 16:9
Frame rate mode                : Constant
Frame rate                     : 25.000 fps
Color space                    : YUV
Chroma subsampling             : 4:2:0
Bit depth                      : 8 bits
Scan type                      : Progressive
Bits/(Pixel*Frame)             : 0.114
Stream size                    : 209 MiB (92%)

Audio
ID                             : 2
Format                         : AAC
Format/Info                    : Advanced Audio Codec
Format profile                 : LC
Codec ID                       : 40
Duration                       : 19mn 50s
Bit rate mode                  : Constant
Bit rate                       : 126 Kbps
Channel(s)                     : 2 channels
Channel positions              : Front: L R
Sampling rate                  : 44.1 KHz
Compression mode               : Lossy
Stream size                    : 17.8 MiB (8%)



YouTube Video:
Category:TV
Language:English  English
Total Size:228.28 MB
Info Hash:63C49BEF86AE49A8888C0CAD43BE9AAB78688435
Added By:sungam3d Uploader
Date Added:2021-04-08 15:30:19
Torrent Status:Torrent Verified by Prom3th3uS Super Administrator on 8th April, 2021


Ratings:Not Yet Rated (Log in to rate it)


Tracker:
udp://tracker.cyberia.is:6969/announce

This Torrent also has backup trackers
URLSeedersLeechersCompleted
udp://tracker.cyberia.is:6969/announce000
udp://tracker.coppersurfer.tk:80000
udp://glotorrents.pw:6969/announce000
udp://tracker.opentrackr.org:1337/announce000
udp://exodus.desync.com:69695063


File List: 





Comments
No comments still posted