Download Judge Judy - S24E162 torrent - GloDLS
Torrent Details For "Judge Judy - S24E162"

Judge Judy - S24E162

To download this torrent, you need a BitTorrent client: Vuze or BTGuard
Download this torrent
Download using Magnet Link

Health:
Seeds: 0
Leechers: 0
Completed:
Last Checked: 14-01-2021 06:15:57

Uploader Reputation points : 112
External: Torrent






Write a Review for the Uploader:   0   Say Thanks with one good review:
Share on Facebook
TV Info

Judge Judy

This courtroom series stars former family court judge Judith Sheindlin. Each episode finds Judge Judy presiding over real small-claims cases inside a televised courtroom. Judge Judy brings her trademark wit and wisdom to the widely successful half-hour series where justice is dispensed at lightning speed.



Details
Name:Judge Judy - S24E162
Description:
Judge Judy - S24E162

Format                                   : MPEG-4
Format profile                           : Base Media
Codec ID                                 : isom (isom/iso2/avc1/mp41)
File size                                : 231 MiB
Duration                                 : 19 min 53 s
Overall bit rate mode                    : Variable
Overall bit rate                         : 1 624 kb/s
Writing application                      : Lavf58.5.100

Video
ID                                       : 1
Format                                   : AVC
Format/Info                              : Advanced Video Codec
Format profile                           : [email protected]
Format settings                          : CABAC / 5 Ref Frames
Format settings, CABAC                   : Yes
Format settings, Reference frames        : 5 frames
Codec ID                                 : avc1
Codec ID/Info                            : Advanced Video Coding
Duration                                 : 19 min 53 s
Bit rate                                 : 1 491 kb/s
Width                                    : 960 pixels
Height                                   : 540 pixels
Display aspect ratio                     : 16:9
Frame rate mode                          : Constant
Frame rate                               : 25.000 FPS
Color space                              : YUV
Chroma subsampling                       : 4:2:0
Bit depth                                : 8 bits
Scan type                                : Progressive
Bits/(Pixel*Frame)                       : 0.115
Stream size                              : 212 MiB (92%)
Codec configuration box                  : avcC

Audio
ID                                       : 2
Format                                   : AAC LC
Format/Info                              : Advanced Audio Codec Low Complexity
Codec ID                                 : mp4a-40-2
Duration                                 : 19 min 53 s
Bit rate mode                            : Variable
Bit rate                                 : 126 kb/s
Maximum bit rate                         : 136 kb/s
Channel(s)                               : 2 channels
Channel layout                           : L R
Sampling rate                            : 44.1 kHz
Frame rate                               : 43.066 FPS (1024 SPF)
Compression mode                         : Lossy
Stream size                              : 17.9 MiB (8%)
Default                                  : Yes
Alternate group                          : 1

YouTube Video:
Category:TV
Language:English  English
Total Size:230.98 MB
Info Hash:B2120C7AA601EB85A9CA51CEED51E9085ADA2CC4
Added By:sungam3d Uploader
Date Added:2021-01-14 14:15:56
Torrent Status:Torrent Verified by Prom3th3uS Super Administrator on 14th January, 2021


Ratings:Not Yet Rated (Log in to rate it)


Tracker:
udp://tracker.cyberia.is:6969/announce

This Torrent also has backup trackers
URLSeedersLeechersCompleted
udp://tracker.cyberia.is:6969/announce000
udp://tracker.coppersurfer.tk:80000
udp://glotorrents.pw:6969/announce000
udp://tracker.opentrackr.org:1337/announce000
udp://exodus.desync.com:6969000


File List: 





Comments
No comments still posted