Download Infinite 2021 HDRip XviD B4ND1T69 torrent - GloDLS
Torrent Details For "Infinite 2021 HDRip XviD B4ND1T69"

Infinite 2021 HDRip XviD B4ND1T69

To download this torrent, you need a BitTorrent client: Vuze or BTGuard
Download this torrent
Download using Magnet Link

Health:
Seeds: 282
Leechers: 42
Completed: 2,597 
Last Checked: 12-06-2021 10:43:16

Uploader Reputation points : 878
External: Torrent






Write a Review for the Uploader:   0   Say Thanks with one good review:
Share on Facebook


Details
Name:Infinite 2021 HDRip XviD B4ND1T69
Description:
Infinite.2021.HDRip.XviD.B4ND1T69



Director: Antoine Fuqua
Writers: Ian Shorr (screenplay), Todd Stein (screen story by)
Stars: Mark Wahlberg, Chiwetel Ejiofor, Sophie Cookson

Plot/Story:
A man discovers that his hallucinations are actually visions from past lives.

General
Complete name               : Infinite.2021.HDRip.XviD.B4ND1T69.avi
Format                      : AVI
Format/Info                 : Audio Video Interleave
File size                   : 1.23 GiB
Duration                    : 1 h 46 min
Overall bit rate            : 1 660 kb/s
Subtitles                   : Yes...Included(HI)

Video
ID                          : 0
Format                      : MPEG-4 Visual
Format profile              : Advanced [email protected]
Format settings, BVOP       : 2
Format settings, QPel       : No
Format settings, GMC        : No warppoints
Format settings, Matrix     : Default (H.263)
Codec ID                    : XVID
Codec ID/Hint               : XviD
Duration                    : 1 h 46 min
Bit rate                    : 1 519 kb/s
Width                       : 720 pixels
Height                      : 304 pixels
Display aspect ratio        : 2.35:1
Frame rate                  : 24.000 FPS
Color space                 : YUV
Chroma subsampling          : 4:2:0
Bit depth                   : 8 bits
Scan type                   : Progressive
Compression mode            : Lossy
Bits/(Pixel*Frame)          : 0.289
Stream size                 : 1.13 GiB (92%)
Writing library             : XviD 64

Audio
ID                          : 1
Format                      : MPEG Audio
Format version              : Version 1
Format profile              : Layer 3
Codec ID                    : 55
Codec ID/Hint               : MP3
Duration                    : 1 h 46 min
Bit rate mode               : Constant
Bit rate                    : 128 kb/s
Channel(s)                  : 2 channels
Sampling rate               : 48.0 kHz
Compression mode            : Lossy
Stream size                 : 97.4 MiB (8%)
Alignment                   : Aligned on interleaves
Interleave, duration        : 24  ms (0.58 video frame)

Screenshots:










Please Seed For As Long As Possible
Or At Least 1:1 Ratio...Thanks
Enjoy Peeps
YouTube Video:   
Category:Movies
Language:English  English
Total Size:1.23 GB
Info Hash:CCC13D48D14A485D6BDF5C896D1EC6922F2B5ABB
Added By:B4ND1T69 Verified UploaderMovie Pirate
Date Added:2021-06-11 03:48:01
Torrent Status:Torrent Verified


Ratings:Not Yet Rated (Log in to rate it)


Tracker:
udp://tracker.opentrackr.org:1337/announce

This Torrent also has backup trackers
URLSeedersLeechersCompleted
udp://tracker.opentrackr.org:1337/announce5111510
udp://exodus.desync.com:6969/announce193199
udp://open.demonii.si:1337/announce000
udp://9.rarbg.to:2750/announce315546
udp://open.stealth.si:80/announce284224
udp://tracker.uw0.xyz:6969/announce303207
udp://tracker.tiny-vps.com:6969/announce293144
udp://fasttracker.foreverpirates.co:6969/announce000
udp://explodie.org:6969/announce000
udp://tracker.cyberia.is:6969/announce000
udp://ipv4.tracker.harry.lu:80/announce530
udp://opentracker.i2p.rocks:6969/announce374329
udp://tracker.moeking.me:6969/announce242222
udp://opentor.org:2710/announce274216
udp://tracker.dler.org:6969/announce100


File List: 





Comments
No comments still posted