Download Infinite (2021) 480p English TRUE HQ HDRip x264 AAC ESub By Full4Movies mkv torrent - GloDLS
Torrent Details For "Infinite (2021) 480p English TRUE HQ HDRip x264 AAC ESub By Full4Movies mkv"

Infinite (2021) 480p English TRUE HQ HDRip x264 AAC ESub By Full4Movies mkv

To download this torrent, you need a BitTorrent client: Vuze or BTGuard
Download this torrent
Download using Magnet Link

Health:
Seeds: 78
Leechers: 53
Completed: 120 
Last Checked: 10-06-2021 16:37:33

Uploader Reputation points : 5827





Write a Review for the Uploader:   5   Say Thanks with one good review:
Share on Facebook


Details
Name:Infinite (2021) 480p English TRUE HQ HDRip x264 AAC ESub By Full4Movies mkv
Description:


Visit Us = https://www.full4movies.org/



General
Complete name                  : Infinite (2021) 480p English TRUE HQ HDRip x264 AAC ESub By Full4Movies.mkv
Format                         : Matroska
Format version                 : Version 4 / Version 2
File size                      : 404 MiB
Duration                       : 1 h 46 min
Overall bit rate               : 531 kb/s
Encoded date                   : UTC 2021-06-10 10:50:26
Writing application            : mkvmerge v8.3.0 ('Over the Horizon') 64bit
Writing library                : libebml v1.3.1 + libmatroska v1.4.2
Attachments                    : cooltext383845052472320.jpg

Video
ID                             : 1
Format                         : AVC
Format/Info                    : Advanced Video Codec
Format profile                 : [email protected]
Format settings, CABAC         : Yes
Format settings, RefFrames     : 4 frames
Codec ID                       : V_MPEG4/ISO/AVC
Duration                       : 1 h 46 min
Bit rate                       : 466 kb/s
Width                          : 720 pixels
Height                         : 304 pixels
Display aspect ratio           : 2.35:1
Frame rate mode                : Constant
Frame rate                     : 24.000 FPS
Color space                    : YUV
Chroma subsampling             : 4:2:0
Bit depth                      : 8 bits
Scan type                      : Progressive
Bits/(Pixel*Frame)             : 0.089
Stream size                    : 355 MiB (88%)
Writing library                : x264 core 157 r2935 545de2f
Language                       : English
Default                        : Yes
Forced                         : No

Audio
ID                             : 2
Format                         : AAC
Format/Info                    : Advanced Audio Codec
Format profile                 : LC
Codec ID                       : A_AAC
Duration                       : 1 h 46 min
Bit rate                       : 61.4 kb/s
Channel(s)                     : 2 channels
Channel positions              : Front: L R
Sampling rate                  : 48.0 kHz
Frame rate                     : 46.875 FPS (1024 SPF)
Compression mode               : Lossy
Stream size                    : 46.7 MiB (12%)
Language                       : English
Default                        : Yes
Forced                         : No

Text #1
ID                             : 3
Format                         : UTF-8
Codec ID                       : S_TEXT/UTF8
Codec ID/Info                  : UTF-8 Plain Text
Duration                       : 1 h 40 min
Bit rate                       : 47 b/s
Count of elements              : 1130
Stream size                    : 34.6 KiB (0%)
Title                          : ESub
Language                       : English
Default                        : No
Forced                         : No

Screen Shoots




YouTube Video:
Category:Movies
Language:English  English
Total Size:403.86 MB
Info Hash:8C481923DCC3F0C84E478B9AB299CDE1A00545A9
Added By:india4movie Verified Uploader
Date Added:2021-06-10 19:12:55
Torrent Status:Torrent Verified


Ratings:Not Yet Rated (Log in to rate it)


Tracker:
udp://tracker.opentrackr.org:1337/announce

This Torrent also has backup trackers
URLSeedersLeechersCompleted
udp://tracker.opentrackr.org:1337/announce181835
udp://tracker.cyberia.is:6969/announce000
udp://9.rarbg.me:2980/announce141141
udp://open.stealth.si:80/announce846
udp://exodus.desync.com:6969/announce414
udp://tracker.moeking.me:6969/announce346
udp://explodie.org:6969/announce000
udp://tracker.openbittorrent.com:80/announce10710
udp://inferno.demonoid.is:3391/announce414
udp://tracker.torrent.eu.org:451/announce625
udp://ipv4.tracker.harry.lu:80/announce220
udp://tracker.uw0.xyz:6969/announce525
udp://tracker.coppersurfer.tk:6969/announce000
udp://exodus.desync.com:6969/announce414
udp://tracker.tiny-vps.com:6969/announce000


File List: 





Comments
No comments still posted