Download Infinite (2021) 1080p English TRUE HQ HDRip x264 AC3 DD 5 1 ESub By Full4Movies mkv torrent - GloDLS
Torrent Details For "Infinite (2021) 1080p English TRUE HQ HDRip x264 AC3 DD 5 1 ESub By Full4Movies mkv"

Infinite (2021) 1080p English TRUE HQ HDRip x264 AC3 DD 5 1 ESub By Full4Movies mkv

To download this torrent, you need a BitTorrent client: Vuze or BTGuard
Download this torrent
Download using Magnet Link

Health:
Seeds: 480
Leechers: 359
Completed: 796 
Last Checked: 10-06-2021 16:37:11

Uploader Reputation points : 5779
External: Torrent






Write a Review for the Uploader:   5   Say Thanks with one good review:
Share on Facebook


Details
Name:Infinite (2021) 1080p English TRUE HQ HDRip x264 AC3 DD 5 1 ESub By Full4Movies mkv
Description:


Visit Us = https://www.full4movies.org/



General
Complete name                  : Infinite (2021) 1080p English TRUE HQ HDRip x264 AC3 DD 5.1 ESub By Full4Movies.mkv
Format                         : Matroska
Format version                 : Version 4 / Version 2
File size                      : 1.99 GiB
Duration                       : 1 h 46 min
Overall bit rate               : 2 678 kb/s
Encoded date                   : UTC 2021-06-10 10:53:52
Writing application            : mkvmerge v8.3.0 ('Over the Horizon') 64bit
Writing library                : libebml v1.3.1 + libmatroska v1.4.2
Attachments                    : cooltext383845052472320.jpg

Video
ID                             : 1
Format                         : AVC
Format/Info                    : Advanced Video Codec
Format profile                 : [email protected]
Format settings, CABAC         : Yes
Format settings, RefFrames     : 4 frames
Codec ID                       : V_MPEG4/ISO/AVC
Duration                       : 1 h 46 min
Bit rate                       : 2 066 kb/s
Width                          : 1 920 pixels
Height                         : 800 pixels
Display aspect ratio           : 2.40:1
Frame rate mode                : Constant
Frame rate                     : 24.000 FPS
Color space                    : YUV
Chroma subsampling             : 4:2:0
Bit depth                      : 8 bits
Scan type                      : Progressive
Bits/(Pixel*Frame)             : 0.056
Stream size                    : 1.51 GiB (76%)
Writing library                : x264 core 157 r2935 545de2f
Language                       : English
Default                        : Yes
Forced                         : No

Audio
ID                             : 2
Format                         : E-AC-3
Format/Info                    : Enhanced Audio Coding 3
Format settings, Endianness    : Big
Codec ID                       : A_EAC3
Duration                       : 1 h 46 min
Bit rate mode                  : Constant
Bit rate                       : 640 kb/s
Channel(s)                     : 6 channels
Channel positions              : Front: L C R, Side: L R, LFE
Sampling rate                  : 48.0 kHz
Frame rate                     : 187.500 FPS (256 SPF)
Compression mode               : Lossy
Stream size                    : 487 MiB (24%)
Language                       : English
Service kind                   : Complete Main
Default                        : Yes
Forced                         : No

Text #1
ID                             : 3
Format                         : UTF-8
Codec ID                       : S_TEXT/UTF8
Codec ID/Info                  : UTF-8 Plain Text
Duration                       : 1 h 40 min
Bit rate                       : 47 b/s
Count of elements              : 1130
Stream size                    : 34.6 KiB (0%)
Title                          : ESub
Language                       : English
Default                        : No
Forced                         : No

Screen Shoots




YouTube Video:
Category:Movies
Language:English  English
Total Size:1.99 GB
Info Hash:3290C84581292C2B83B5D663D602ECEB9C4C6030
Added By:india4movie Verified Uploader
Date Added:2021-06-10 19:17:19
Torrent Status:Torrent Verified


Ratings:Not Yet Rated (Log in to rate it)


Tracker:
udp://tracker.opentrackr.org:1337/announce

This Torrent also has backup trackers
URLSeedersLeechersCompleted
udp://tracker.opentrackr.org:1337/announce8465157
udp://tracker.cyberia.is:6969/announce000
udp://9.rarbg.me:2980/announce5240157
udp://open.stealth.si:80/announce453065
udp://exodus.desync.com:6969/announce302464
udp://tracker.moeking.me:6969/announce312961
udp://explodie.org:6969/announce000
udp://tracker.openbittorrent.com:80/announce382810
udp://inferno.demonoid.is:3391/announce362357
udp://tracker.torrent.eu.org:451/announce342457
udp://ipv4.tracker.harry.lu:80/announce18200
udp://tracker.uw0.xyz:6969/announce482770
udp://tracker.coppersurfer.tk:6969/announce000
udp://exodus.desync.com:6969/announce302464
udp://tracker.tiny-vps.com:6969/announce342534


File List: 





Comments
No comments still posted