Download House of Secrets (2021) 720p Season 1 (EP 1 TO 03) Dual Audio [Hindi ORG DD 5 1 + English] WEB-HDRip x264 AAC DD 2 0 By Full4Movies torrent - GloDLS
Login
Username:
Password:
Remember Me:
[Signup]
[Recover Account]
Friends
Angie Torrents
Friendly Site

Pirateiro
Friendly site

Free Courses Online
Friendly site

ETTV
Friendly site

ProStyleX
Friendly site

KaranPC
Friendly site

P2PDL.com
Friendly site

OneHack
Friendly site

IGGGames
Friendly site

HTML tutorial
Torrent Details For "House of Secrets (2021) 720p Season 1 (EP 1 TO 03) Dual Audio [Hindi ORG DD 5 1 + Eng..."

House of Secrets (2021) 720p Season 1 (EP 1 TO 03) Dual Audio [Hindi ORG DD 5 1 + Eng...

To download this torrent, you need a BitTorrent client: Vuze or BTGuard
Download this torrent
Download using Magnet Link

Health:
Seeds: 153
Leechers: 123
Completed: 587 
Last Checked: 12-10-2021 13:10:37

Uploader Reputation points : 6790





Write a Review for the Uploader:   5   Say Thanks with one good review:
Share on Facebook


Details
Name:House of Secrets (2021) 720p Season 1 (EP 1 TO 03) Dual Audio [Hindi ORG DD 5 1 + Eng...
Description:


Visit Us = https://www.full4movies.site/



General
Complete name                  : House of Secrets (2021) 720p Season 1 (EP 1 TO 03) Dual Audio [Hindi ORG DD 5.1 + English] WEB-HDRip x264 AAC DD 2.0 By Full4Movies
Format                         : Matroska
Format version                 : Version 4
File size                      : 465 MiB
Duration                       : 46 min 8 s
Overall bit rate               : 1 410 kb/s
Encoded date                   : UTC 2021-10-11 18:04:51 / UTC
Writing application            : mkvmerge v8.3.0 ('Over the Horizon') 64bit
Writing library                : libebml v1.3.1 + libmatroska v1.4.2 / Lavf55.12.0
Attachments                    : +Full4Movies.jpg

Video
ID                             : 1
Format                         : AVC
Format/Info                    : Advanced Video Codec
Format profile                 : [email protected]
Format settings                : CABAC / 4 Ref Frames
Format settings, CABAC         : Yes
Format settings, Reference fra : 4 frames
Codec ID                       : V_MPEG4/ISO/AVC
Duration                       : 46 min 8 s
Bit rate                       : 1 200 kb/s
Width                          : 1 280 pixels
Height                         : 640 pixels
Display aspect ratio           : 2.000
Frame rate mode                : Constant
Frame rate                     : 25.000 FPS
Color space                    : YUV
Chroma subsampling             : 4:2:0
Bit depth                      : 8 bits
Scan type                      : Progressive
Bits/(Pixel*Frame)             : 0.059
Stream size                    : 396 MiB (85%)
Writing library                : x264 core 142 r2479 dd79a61
Default                        : Yes
Forced                         : No
Color range                    : Limited
Color primaries                : BT.709
Transfer characteristics       : BT.709
Matrix coefficients            : BT.709

Audio #1
ID                             : 2
Format                         : AAC LC SBR
Format settings                : NBC
Codec ID                       : A_AAC-5
Duration                       : 46 min 8 s
Bit rate                       : 128 kb/s
Channel(s)                     : 6 channels
Channel layout                 : C L R Ls Rs LFE
Sampling rate                  : 48.0 kHz
Frame rate                     : 23.438 FPS (2048 SPF)
Compression mode               : Lossy
Delay relative to video        : -105 ms
Stream size                    : 42.2 MiB (9%)
Title                          : Surround
Language                       : Hindi
Default                        : Yes
Forced                         : No

Audio #2
ID                             : 3
Format                         : AAC LC SBR
Commercial name                : HE-AAC
Format settings                : NBC
Codec ID                       : A_AAC-5
Duration                       : 46 min 8 s
Bit rate                       : 80.0 kb/s
Channel(s)                     : 2 channels
Channel layout                 : L R
Sampling rate                  : 48.0 kHz
Frame rate                     : 23.438 FPS (2048 SPF)
Compression mode               : Lossy
Delay relative to video        : -105 ms
Stream size                    : 26.4 MiB (6%)
Title                          : Stereo
Language                       : English
Default                        : No
Forced                         : No

Text
ID                             : 4
Format                         : ASS
Codec ID                       : S_TEXT/ASS
Codec ID/Info                  : Advanced Sub Station Alpha
Duration                       : 41 min 58 s
Bit rate                       : 130 b/s
Count of elements              : 608
Compression mode               : Lossless
Stream size                    : 40.3 KiB (0%)
Language                       : English
Default                        : No
Forced                         : No
Screen Shoots

YouTube Video:
Category:TV
Language:Dubs/Dual Audio
Total Size:1.34 GB
Info Hash:B97CDB319020365B318140A07C35C3B97CE26A9F
Added By:india4movie Verified Uploader
Date Added:2021-10-12 11:22:14
Torrent Status:Torrent Verified


Ratings:Not Yet Rated (Log in to rate it)


Tracker:
udp://tracker.opentrackr.org:1337/announce

This Torrent also has backup trackers
URLSeedersLeechersCompleted
udp://tracker.opentrackr.org:1337/announce282370
udp://9.rarbg.me:2790/announce1719126
udp://9.rarbg.to:2800/announce1719126
http://tracker.dler.org:6969/announce000
udp://tracker.internetwarriors.net:1337/announce201242
udp://open.stealth.si:80/announce16634
udp://fasttracker.foreverpirates.co:6969/announce000
udp://tracker.uw0.xyz:6969/announce000
udp://tracker.dler.org:6969/announce000
udp://opentor.org:2710/announce4519
udp://open.stealth.si:80/announce16634
udp://9.rarbg.me:2980/announce1719126
udp://tracker.openbittorrent.com:80/announce181410


File List: 





Comments
No comments still posted