Download Hotel Transylvania 4 Transformania 2022 x264 720p AmaZone WebHD Esub ACC English Hindi Telugu Tamil THE GOPI SAHI torrent - GloDLS
HTML tutorial
Torrent Details For "Hotel Transylvania 4 Transformania 2022 x264 720p AmaZone WebHD Esub ACC English Hind..."

Hotel Transylvania 4 Transformania 2022 x264 720p AmaZone WebHD Esub ACC English Hind...

To download this torrent, you need a BitTorrent client: Vuze or BTGuard
Download this torrent
Download using Magnet Link

Health:
Seeds: 0
Leechers: 0
Completed:
Last Checked: 14-01-2022 09:15:24

Uploader Reputation points : 4004





Write a Review for the Uploader:   10   Say Thanks with one good review:
Share on Facebook


Details
Name:Hotel Transylvania 4 Transformania 2022 x264 720p AmaZone WebHD Esub ACC English Hind...
Description:
Join Us On TeleGram

https://t.me/gopisahit

[img]https://blogger.googleusercontent.com/img/a/AVvXsEiKAStZprL41h-dDAU7qcQI3qCueMqUr-Bv-Qf1I6SA1gZqSZBJFNmMcVBOBr1FW_nG_XPypGQD729PFlKp1CnU_OEVKO_vlwGi-0mlKz1XH54Wjy0wivQSzBddCplLP9D7YJ5u5CQ7vZeMjy-BDtGzzvwOZpkBBxNldVaSHK5sensfoZGDjDfMSl_irQ=s1920[/img]

Hotel Transylvania 4 Transformania 2022 x264 720p AmaZone WebHD Esub ACC English Hindi Telugu Tamil THE GOPI SAHI


Format                         : Matroska
Format version                 : Version 4
File size                      : 776 MiB
Duration                       : 1 h 27 min
Overall bit rate               : 1 239 kb/s
Movie name                     : Hotel Transylvania 4 Transformania 2022 GOPI SAHI
Encoded date                   : UTC 2022-01-14 08:25:27

Video
ID                             : 1
Format                         : AVC
Format/Info                    : Advanced Video Codec
Format profile                 : [email protected]
Format settings                : CABAC / 6 Ref Frames
Format settings, CABAC         : Yes
Format settings, Reference fra : 6 frames
Codec ID                       : V_MPEG4/ISO/AVC
Duration                       : 1 h 27 min
Bit rate                       : 899 kb/s
Width                          : 1 280 pixels
Height                         : 534 pixels
Display aspect ratio           : 1.85:1
Frame rate mode                : Constant
Frame rate                     : 23.976 (24000/1001) FPS
Color space                    : YUV
Chroma subsampling             : 4:2:0
Bit depth                      : 8 bits
Scan type                      : Progressive
Bits/(Pixel*Frame)             : 0.055
Stream size                    : 562 MiB (72%)
Title                          : GOPI SAHI
Writing library                : x264 core 163 r3059 b684ebe0

Audio #1
ID                             : 2
Format                         : AAC LC
Format/Info                    : Advanced Audio Codec Low Complexity
Codec ID                       : A_AAC-2
Duration                       : 1 h 27 min
Bit rate                       : 96.0 kb/s
Channel(s)                     : 2 channels
Channel layout                 : L R
Sampling rate                  : 48.0 kHz
Frame rate                     : 46.875 FPS (1024 SPF)
Compression mode               : Lossy
Delay relative to video        : -21 ms
Stream size                    : 60.3 MiB (8%)
Title                          : GOPI SAHI
Language                       : Hindi
Default                        : Yes
Forced                         : No

Audio #2
ID                             : 3
Format                         : AAC LC
Format/Info                    : Advanced Audio Codec Low Complexity
Codec ID                       : A_AAC-2
Duration                       : 1 h 27 min
Bit rate                       : 80.3 kb/s
Channel(s)                     : 2 channels
Channel layout                 : L R
Sampling rate                  : 48.0 kHz
Frame rate                     : 46.875 FPS (1024 SPF)
Compression mode               : Lossy
Delay relative to video        : -21 ms
Stream size                    : 50.3 MiB (6%)
Title                          : GOPI SAHI
Language                       : English
Default                        : No
Forced                         : No

Audio #3
ID                             : 4
Format                         : AAC LC
Format/Info                    : Advanced Audio Codec Low Complexity
Codec ID                       : A_AAC-2
Duration                       : 1 h 27 min
Bit rate                       : 80.3 kb/s
Channel(s)                     : 2 channels
Channel layout                 : L R
Sampling rate                  : 48.0 kHz
Frame rate                     : 46.875 FPS (1024 SPF)
Compression mode               : Lossy
Delay relative to video        : -21 ms
Stream size                    : 50.3 MiB (6%)
Title                          : GOPI SAHI
Language                       : Telugu
Default                        : No
Forced                         : No

Audio #4
ID                             : 5
Format                         : AAC LC
Format/Info                    : Advanced Audio Codec Low Complexity
Codec ID                       : A_AAC-2
Duration                       : 1 h 27 min
Bit rate                       : 80.3 kb/s
Channel(s)                     : 2 channels
Channel layout                 : L R
Sampling rate                  : 48.0 kHz
Frame rate                     : 46.875 FPS (1024 SPF)
Compression mode               : Lossy
Delay relative to video        : -21 ms
Stream size                    : 50.3 MiB (6%)
Title                          : GOPI SAHI
Language                       : Tamil
Default                        : No
Forced                         : No

Text
ID                             : 6
Format                         : UTF-8
Codec ID                       : S_TEXT/UTF8
Codec ID/Info                  : UTF-8 Plain Text
Duration                       : 1 h 27 min
Bit rate                       : 68 b/s
Count of elements              : 1879
Stream size                    : 43.6 KiB (0%)
Title                          : GOPI SAHI
Language                       : English
Default                        : Yes
Forced                         : No

Menu
00:00:00.000                   : :Amazon Original
00:00:06.006                   : :Studio Logo
00:00:39.081                   : :Scene 3
00:06:19.004                   : :Scene 4
00:09:44.000                   : :Scene 5
00:15:49.073                   : :Scene 6
00:18:10.047                   : :Scene 7
00:22:49.034                   : :Scene 8
00:26:39.014                   : :Scene 9
00:28:54.024                   : :Scene 10
00:31:21.046                   : :Scene 11
00:33:01.062                   : :Scene 12
00:34:11.049                   : :Scene 13
00:36:28.061                   : :Scene 14
00:37:07.058                   : :Scene 15
00:38:13.041                   : :Scene 16
00:40:54.035                   : :Scene 17
00:45:33.147                   : :Scene 18
00:47:15.082                   : :Scene 19
00:48:32.076                   : :Scene 20
00:51:44.101                   : :Scene 21
00:57:04.087                   : :Scene 22
01:05:33.054                   : :Scene 23
01:13:43.085                   : :Scene 24
01:17:02.159                   : :Scene 25
01:17:48.080                   : :End Credits

[img]https://blogger.googleusercontent.com/img/a/AVvXsEgG4NamwJ05KJEQdScy2CnIWYDMCJ_fcu5iAR1tTnKqlKWjJh4RC-jXnQyF-m86p5Ne9YnoTjG2Rxxut8JgurZOH8ANhIxHeeRi7zzu7NIpa-BpL3zHdkSi4DCHkQbZ0l7ZMDwNw6emvDQ3YGJ7QWY0XG5XHStIADHhesYUUKj5DyNWK2f_33qxkTo87w=s1280[/img]
YouTube Video:
Category:Movies
Language:Hindi  Hindi
Total Size:776.00 MB
Info Hash:479163F40E3CF0316B0F5971310DD898BF8E26F8
Added By:GOPISAHI Verified UploaderMovie Pirate
Date Added:2022-01-14 17:15:22
Torrent Status:Torrent Verified


Ratings:Not Yet Rated (Log in to rate it)


Tracker:
udp://p4p.arenabg.com:1337/announce

This Torrent also has backup trackers
URLSeedersLeechersCompleted
udp://p4p.arenabg.com:1337/announce000
udp://exodus.desync.com:6969/announce000
udp://tracker.sbsub.com:2710/announce000
udp://tracker.opentrackr.org:1337/announce000
udp://open.stealth.si:80/announce000
udp://retracker.lanta-net.ru:2710/announce000
http://bt1.archive.org:6969/announce000
http://bt2.archive.org:6969/announce000
http://tracker.files.fm:6969/announce000
udp://tracker.zerobytes.xyz:1337/announce000
https://tracker.nitrix.me:443/announce000
udp://cutiegirl.ru:6969/announce000
udp://vibe.community:6969/announce000
udp://wassermann.online:6969/announce000
udp://mts.tvbit.co:6969/announce000


File List: 





Comments
No comments still posted