Download Hawkeye (2021) 720p Season 1 EP-(01-02) [Hindi (DD 5 1) + English] WEB-DL x264 AAC ESub By Full4Movies torrent - GloDLS
HTML tutorial
Torrent Details For "Hawkeye (2021) 720p Season 1 EP-(01-02) [Hindi (DD 5 1) + English] WEB-DL x264 AAC ES..."

Hawkeye (2021) 720p Season 1 EP-(01-02) [Hindi (DD 5 1) + English] WEB-DL x264 AAC ES...

To download this torrent, you need a BitTorrent client: Vuze or BTGuard
Download this torrent
Download using Magnet Link

Health:
Seeds: 281
Leechers: 401
Completed: 1,147 
Last Checked: 24-11-2021 15:30:30

Uploader Reputation points : 7048





Write a Review for the Uploader:   5   Say Thanks with one good review:
Share on Facebook


Details
Name:Hawkeye (2021) 720p Season 1 EP-(01-02) [Hindi (DD 5 1) + English] WEB-DL x264 AAC ES...
Description:


Visit Us = https://www.full4movies.cfd/



General
Complete name                  : Hawkeye (2021) 720p Season 1 EP-(01-02) [Hindi (DD 5.1) + English] WEB-DL x264 AAC ESub By Full4Movies
Format                         : Matroska
Format version                 : Version 4
File size                      : 479 MiB
Duration                       : 47 min 24 s
Overall bit rate               : 1 413 kb/s
Encoded date                   : UTC 2021-11-24 10:27:38 / UTC
Writing application            : mkvmerge v8.3.0 ('Over the Horizon') 64bit
Writing library                : libebml v1.3.1 + libmatroska v1.4.2 / Lavf55.12.0
Attachments                    : Full4movies.cfd.jpg

Video
ID                             : 1
Format                         : AVC
Format/Info                    : Advanced Video Codec
Format profile                 : [email protected]
Format settings                : CABAC / 4 Ref Frames
Format settings, CABAC         : Yes
Format settings, Reference fra : 4 frames
Codec ID                       : V_MPEG4/ISO/AVC
Duration                       : 47 min 24 s
Bit rate                       : 1 200 kb/s
Width                          : 1 280 pixels
Height                         : 536 pixels
Display aspect ratio           : 2.40:1
Frame rate mode                : Constant
Frame rate                     : 24.000 FPS
Color space                    : YUV
Chroma subsampling             : 4:2:0
Bit depth                      : 8 bits
Scan type                      : Progressive
Bits/(Pixel*Frame)             : 0.073
Stream size                    : 408 MiB (85%)
Title                          : Full4Movies.cfd
Writing library                : x264 core 142 r2479 dd79a61
Default                        : Yes
Forced                         : No
Color range                    : Limited
Color primaries                : BT.709
Transfer characteristics       : BT.709
Matrix coefficients            : BT.709

Audio #1
ID                             : 2
Format                         : AAC LC SBR
Format settings                : NBC
Codec ID                       : A_AAC-5
Duration                       : 47 min 24 s
Bit rate                       : 128 kb/s
Channel(s)                     : 6 channels
Channel layout                 : C L R Ls Rs LFE
Sampling rate                  : 48.0 kHz
Frame rate                     : 23.438 FPS (2048 SPF)
Compression mode               : Lossy
Delay relative to video        : -105 ms
Stream size                    : 43.4 MiB (9%)
Language                       : Hindi
Default                        : Yes
Forced                         : Yes

Audio #2
ID                             : 3
Format                         : AAC LC SBR
Commercial name                : HE-AAC
Format settings                : NBC
Codec ID                       : A_AAC-5
Duration                       : 47 min 24 s
Bit rate                       : 80.0 kb/s
Channel(s)                     : 2 channels
Channel layout                 : L R
Sampling rate                  : 48.0 kHz
Frame rate                     : 23.438 FPS (2048 SPF)
Compression mode               : Lossy
Delay relative to video        : -105 ms
Stream size                    : 27.1 MiB (6%)
Language                       : English
Default                        : No
Forced                         : No

Text
ID                             : 4
Format                         : ASS
Codec ID                       : S_TEXT/ASS
Codec ID/Info                  : Advanced Sub Station Alpha
Duration                       : 44 min 51 s
Bit rate                       : 101 b/s
Count of elements              : 632
Compression mode               : Lossless
Stream size                    : 33.5 KiB (0%)
Language                       : English
Default                        : No
Forced                         : No

Screen Shoots







YouTube Video:
Category:TV
Language:Dubs/Dual Audio
Total Size:976.75 MB
Info Hash:1C3F472A14011DE245B35BBC33B6E11290F55126
Added By:india4movie Verified Uploader
Date Added:2021-11-24 18:51:10
Torrent Status:Torrent Verified


Ratings:Not Yet Rated (Log in to rate it)


Tracker:
udp://tracker.opentrackr.org:1337/announce

This Torrent also has backup trackers
URLSeedersLeechersCompleted
udp://tracker.opentrackr.org:1337/announce4975121
udp://9.rarbg.me:2790/announce4161294
udp://9.rarbg.to:2800/announce4161294
http://tracker.dler.org:6969/announce102
udp://tracker.internetwarriors.net:1337/announce192028
udp://open.stealth.si:80/announce334352
udp://fasttracker.foreverpirates.co:6969/announce000
udp://tracker.uw0.xyz:6969/announce000
udp://tracker.dler.org:6969/announce000
udp://opentor.org:2710/announce000
udp://open.stealth.si:80/announce334352
udp://9.rarbg.me:2980/announce4161294
udp://tracker.openbittorrent.com:80/announce233810


File List: 





Comments
No comments still posted