Download Hawkeye (2021) 480p Season 1 EP-(01-02) [Hindi (DD 2 0) + English] WEB-DL x264 AAC ESub By Full4Movies torrent - GloDLS
HTML tutorial
Torrent Details For "Hawkeye (2021) 480p Season 1 EP-(01-02) [Hindi (DD 2 0) + English] WEB-DL x264 AAC ES..."

Hawkeye (2021) 480p Season 1 EP-(01-02) [Hindi (DD 2 0) + English] WEB-DL x264 AAC ES...

To download this torrent, you need a BitTorrent client: Vuze or BTGuard
Download this torrent
Download using Magnet Link

Health:
Seeds: 189
Leechers: 173
Completed: 484 
Last Checked: 24-11-2021 15:30:19

Uploader Reputation points : 7048





Write a Review for the Uploader:   5   Say Thanks with one good review:
Share on Facebook


Details
Name:Hawkeye (2021) 480p Season 1 EP-(01-02) [Hindi (DD 2 0) + English] WEB-DL x264 AAC ES...
Description:


Visit Us = https://www.full4movies.cfd/



General
Complete name                  : Hawkeye (2021) 480p Season 1 EP-(01-02) [Hindi (DD 2.0) + English] WEB-DL x264 AAC ESub By Full4Movies
Format                         : Matroska
Format version                 : Version 4
File size                      : 164 MiB
Duration                       : 47 min 24 s
Overall bit rate               : 483 kb/s
Encoded date                   : UTC 2021-11-24 10:58:15 / UTC
Writing application            : mkvmerge v8.3.0 ('Over the Horizon') 64bit
Writing library                : libebml v1.3.1 + libmatroska v1.4.2 / Lavf55.12.0
Attachments                    : Full4movies.cfd.jpg

Video
ID                             : 1
Format                         : AVC
Format/Info                    : Advanced Video Codec
Format profile                 : [email protected]
Format settings                : CABAC / 4 Ref Frames
Format settings, CABAC         : Yes
Format settings, Reference fra : 4 frames
Codec ID                       : V_MPEG4/ISO/AVC
Duration                       : 47 min 24 s
Bit rate                       : 400 kb/s
Width                          : 720 pixels
Height                         : 302 pixels
Display aspect ratio           : 2.40:1
Frame rate mode                : Constant
Frame rate                     : 24.000 FPS
Color space                    : YUV
Chroma subsampling             : 4:2:0
Bit depth                      : 8 bits
Scan type                      : Progressive
Bits/(Pixel*Frame)             : 0.077
Stream size                    : 136 MiB (83%)
Writing library                : x264 core 142 r2479 dd79a61
Default                        : Yes
Forced                         : No
Color range                    : Limited
Color primaries                : BT.709
Transfer characteristics       : BT.709
Matrix coefficients            : BT.709

Audio #1
ID                             : 2
Format                         : AAC LC SBR
Format/Info                    : Advanced Audio Codec Low Complexity with Spectral Band Replication
Commercial name                : HE-AAC
Format settings                : NBC
Codec ID                       : A_AAC-5
Duration                       : 47 min 24 s
Bit rate                       : 40.0 kb/s
Channel(s)                     : 2 channels
Channel layout                 : L R
Sampling rate                  : 48.0 kHz
Frame rate                     : 23.438 FPS (2048 SPF)
Compression mode               : Lossy
Delay relative to video        : -105 ms
Stream size                    : 13.6 MiB (8%)
Language                       : Hindi
Default                        : Yes
Forced                         : No

Audio #2
ID                             : 3
Format                         : AAC LC SBR
Format/Info                    : Advanced Audio Codec Low Complexity with Spectral Band Replication
Commercial name                : HE-AAC
Format settings                : NBC
Codec ID                       : A_AAC-5
Duration                       : 47 min 24 s
Bit rate                       : 40.0 kb/s
Channel(s)                     : 2 channels
Channel layout                 : L R
Sampling rate                  : 48.0 kHz
Frame rate                     : 23.438 FPS (2048 SPF)
Compression mode               : Lossy
Delay relative to video        : -105 ms
Stream size                    : 13.6 MiB (8%)
Language                       : English
Default                        : No
Forced                         : No

Text
ID                             : 4
Format                         : ASS
Codec ID                       : S_TEXT/ASS
Codec ID/Info                  : Advanced Sub Station Alpha
Duration                       : 44 min 51 s
Bit rate                       : 101 b/s
Count of elements              : 632
Compression mode               : Lossless
Stream size                    : 33.5 KiB (0%)
Language                       : English
Default                        : No
Forced                         : No

Screen Shoots








YouTube Video:
Category:TV
Language:Dubs/Dual Audio
Total Size:334.20 MB
Info Hash:1E55192C9A6B0A7A78A27713E8648F696392D641
Added By:india4movie Verified Uploader
Date Added:2021-11-24 19:13:15
Torrent Status:Torrent Verified


Ratings:Not Yet Rated (Log in to rate it)


Tracker:
udp://tracker.opentrackr.org:1337/announce

This Torrent also has backup trackers
URLSeedersLeechersCompleted
udp://tracker.opentrackr.org:1337/announce304454
udp://9.rarbg.me:2790/announce2717112
udp://9.rarbg.to:2800/announce2717112
http://tracker.dler.org:6969/announce011
udp://tracker.internetwarriors.net:1337/announce101512
udp://open.stealth.si:80/announce181826
udp://fasttracker.foreverpirates.co:6969/announce000
udp://tracker.uw0.xyz:6969/announce000
udp://tracker.dler.org:6969/announce000
udp://opentor.org:2710/announce151319
udp://open.stealth.si:80/announce181826
udp://9.rarbg.me:2980/announce2717112
udp://tracker.openbittorrent.com:80/announce171310


File List: 





Comments
No comments still posted