Download Ghostbusters Afterlife 2021 HDRip XviD B4ND1T69 torrent - GloDLS
Login
Username:
Password:
Remember Me:
[Signup]
[Recover Account]
Friends
Angie Torrents
Friendly Site

Pirateiro
Friendly site

Free Courses Online
Friendly site

ETTV
Friendly site

ProStyleX
Friendly site

KaranPC
Friendly site

P2PDL.com
Friendly site

OneHack
Friendly site

IGGGames
Friendly site

HTML tutorial
Torrent Details For "Ghostbusters Afterlife 2021 HDRip XviD B4ND1T69"

Ghostbusters Afterlife 2021 HDRip XviD B4ND1T69

To download this torrent, you need a BitTorrent client: Vuze or BTGuard
Download this torrent
Download using Magnet Link

Health:
Seeds: 586
Leechers: 84
Completed: 7,983 
Last Checked: 15-01-2022 11:21:53

Uploader Reputation points : 1348





Write a Review for the Uploader:   0   Say Thanks with one good review:
Share on Facebook


Details
Name:Ghostbusters Afterlife 2021 HDRip XviD B4ND1T69
Description:
Ghostbusters.Afterlife.2021.HDRip.XviD.B4ND1T69



Director: Jason Reitman
Writers: Gil Kenan, Jason Reitman, Dan Aykroyd(based on: the 1984 "Ghostbusters", written by)
Stars: Carrie Coon, Paul Rudd, Finn Wolfhard

Plot/Story:
When a single mom and her two kids arrive in a small town, they begin to discover their connection to the original Ghostbusters and the secret legacy their grandfather left behind.

General
Complete name               : Ghostbusters.Afterlife.2021.HDRip.XviD.B4ND1T69.avi
Format                      : AVI
Format/Info                 : Audio Video Interleave
File size                   : 1.08 GiB
Duration                    : 2 h 3 min
Overall bit rate            : 1 246 kb/s
Subtitles                   : Yes...Included(HI)

Video
ID                          : 0
Format                      : MPEG-4 Visual
Format profile              : Advanced [email protected]
Format settings, BVOP       : 2
Format settings, QPel       : No
Format settings, GMC        : No warppoints
Format settings, Matrix     : Default (H.263)
Codec ID                    : XVID
Codec ID/Hint               : XviD
Duration                    : 2 h 3 min
Bit rate                    : 1 105 kb/s
Width                       : 720 pixels
Height                      : 304 pixels
Display aspect ratio        : 2.35:1
Frame rate                  : 23.976 (24000/1001) FPS
Color space                 : YUV
Chroma subsampling          : 4:2:0
Bit depth                   : 8 bits
Scan type                   : Progressive
Compression mode            : Lossy
Bits/(Pixel*Frame)          : 0.210
Stream size                 : 979 MiB (89%)
Writing library             : XviD 64

Audio
ID                          : 1
Format                      : MPEG Audio
Format version              : Version 1
Format profile              : Layer 3
Codec ID                    : 55
Codec ID/Hint               : MP3
Duration                    : 2 h 3 min
Bit rate mode               : Constant
Bit rate                    : 128 kb/s
Channel(s)                  : 2 channels
Sampling rate               : 48.0 kHz
Compression mode            : Lossy
Stream size                 : 113 MiB (10%)
Alignment                   : Aligned on interleaves
Interleave, duration        : 24  ms (0.58 video frame)

Screenshots:










Please Seed For As Long As Possible
Or At Least 1:1 Ratio...Thanks
Enjoy Peeps
YouTube Video:   
Category:Movies
Language:English  English
Total Size:1.08 GB
Info Hash:6B3A83A38195AA7DE2E71E1A7B7019883592EF77
Added By:B4ND1T69 Verified UploaderMovie Pirate
Date Added:2022-01-13 06:42:23
Torrent Status:Torrent Verified


Ratings:Not Yet Rated (Log in to rate it)


Tracker:
udp://tracker.opentrackr.org:1337/announce

This Torrent also has backup trackers
URLSeedersLeechersCompleted
udp://tracker.opentrackr.org:1337/announce85141,064
udp://tracker2.dler.com:80/announce600
udp://tracker.moeking.me:6969/announce730
udp://9.rarbg.to:2850/announce5572,074
udp://code2chicken.nl:6969/announce426365
udp://opentor.org:2710/announce000
udp://exodus.desync.com:6969/announce466362
udp://explodie.org:6969/announce1960
udp://tracker.zerobytes.xyz:1337/announce546436
udp://9.rarbg.to:2950/announce5572,074
udp://open.stealth.si:80/announce558450
udp://retracker.netbynet.ru:2710/announce537370
udp://tracker.torrent.eu.org:451/announce578414
udp://fe.dealclub.de:6969/announce526374
udp://p4p.arenabg.com:1337/announce000


File List: 





Comments
No comments still posted