Download Fear The Walking Dead S07E07 WEB-DL XviD B4ND1T69 torrent - GloDLS
HTML tutorial
Torrent Details For "Fear The Walking Dead S07E07 WEB-DL XviD B4ND1T69"

Fear The Walking Dead S07E07 WEB-DL XviD B4ND1T69

To download this torrent, you need a BitTorrent client: Vuze or BTGuard
Download this torrent
Download using Magnet Link

Health:
Seeds: 257
Leechers: 48
Completed: 442 
Last Checked: 23-11-2021 13:10:18

Uploader Reputation points : 1282





Write a Review for the Uploader:   0   Say Thanks with one good review:
Share on Facebook
TV Info

Fear the Walking Dead

In Los Angeles, a city where people come to escape, shield secrets, and bury their pasts, we follow this mysterious outbreak as it threatens to disrupt what little stability high school guidance counselor Madison Clark and English teacher Travis Manawa have managed to assemble. The pressure of blending two families while dealing with resentful, escapist, and strung out children takes a back seat when society begins to break down. A forced evolution, and survival of the fittest takes hold, as our dysfunctional family finds they must either reinvent themselves or embrace their darker histories.



Details
Name:Fear The Walking Dead S07E07 WEB-DL XviD B4ND1T69
Description:
Fear.The.Walking.Dead.S07E07.WEB-DL.XviD.B4ND1T69



Creators: Dave Erickson, Robert Kirkman
Stars: Kim Dickens, Frank Dillane, Cliff Curtis

Plot/Story:
The Portrait
Morgan seeks Strand's help at a dangerous time for the tower.

General
Complete name               : Fear.The.Walking.Dead.S07E07.WEB-DL.XviD.B4ND1T69.avi
Format                      : AVI
Format/Info                 : Audio Video Interleave
File size                   : 433 MiB
Duration                    : 52 min 39 s
Overall bit rate            : 1 148 kb/s
Subtitles                   : Yes...Included(HI)

Video
ID                          : 0
Format                      : MPEG-4 Visual
Format profile              : Advanced [email protected]
Format settings, BVOP       : 2
Format settings, QPel       : No
Format settings, GMC        : No warppoints
Format settings, Matrix     : Default (H.263)
Codec ID                    : XVID
Codec ID/Hint               : XviD
Duration                    : 52 min 39 s
Bit rate                    : 1 007 kb/s
Width                       : 640 pixels
Height                      : 360 pixels
Display aspect ratio        : 16:9
Frame rate                  : 24.000 FPS
Color space                 : YUV
Chroma subsampling          : 4:2:0
Bit depth                   : 8 bits
Scan type                   : Progressive
Compression mode            : Lossy
Bits/(Pixel*Frame)          : 0.182
Stream size                 : 379 MiB (88%)
Writing library             : XviD 64

Audio
ID                          : 1
Format                      : MPEG Audio
Format version              : Version 1
Format profile              : Layer 3
Codec ID                    : 55
Codec ID/Hint               : MP3
Duration                    : 52 min 39 s
Bit rate mode               : Constant
Bit rate                    : 128 kb/s
Channel(s)                  : 2 channels
Sampling rate               : 48.0 kHz
Compression mode            : Lossy
Stream size                 : 48.2 MiB (11%)
Alignment                   : Aligned on interleaves
Interleave, duration        : 24  ms (0.58 video frame)

Screenshots:







Please Seed For As Long As Possible
Or At Least 1:1 Ratio...Thanks
Enjoy Peeps
YouTube Video:   
Category:TV
Language:English  English
Total Size:432.66 MB
Info Hash:773C10EF92EC8F3A06ED1E379F844DDB8607D164
Added By:B4ND1T69 Verified UploaderMovie Pirate
Date Added:2021-11-23 19:01:26
Torrent Status:Torrent Verified


Ratings:Not Yet Rated (Log in to rate it)


Tracker:
udp://tracker.opentrackr.org:1337/announce

This Torrent also has backup trackers
URLSeedersLeechersCompleted
udp://tracker.opentrackr.org:1337/announce30649
udp://open.stealth.si:80/announce23335
udp://exodus.desync.com:6969/announce19326
udp://9.rarbg.to:2790/announce23475
udp://opentor.org:2710/announce24431
udp://explodie.org:6969/announce1660
udp://tracker.uw0.xyz:6969/announce000
udp://opentracker.i2p.rocks:6969/announce000
udp://9.rarbg.me:2980/announce23475
udp://tracker.tiny-vps.com:6969/announce10134
udp://tracker.moeking.me:6969/announce921
udp://tracker.zerobytes.xyz:1337/announce21433
udp://retracker.netbynet.ru:2710/announce24431
udp://tracker.torrent.eu.org:451/announce21529
udp://p4p.arenabg.com:1337/announce14223


File List: 





Comments
No comments still posted