Download Fear The Walking Dead S06E16 WEB-DL XviD B4ND1T69 torrent - GloDLS
Torrent Details For "Fear The Walking Dead S06E16 WEB-DL XviD B4ND1T69"

Fear The Walking Dead S06E16 WEB-DL XviD B4ND1T69

To download this torrent, you need a BitTorrent client: Vuze or BTGuard
Download this torrent
Download using Magnet Link

Health:
Seeds: 350
Leechers: 104
Completed: 748 
Last Checked: 10-06-2021 14:59:58

Uploader Reputation points : 878
External: Torrent






Write a Review for the Uploader:   0   Say Thanks with one good review:
Share on Facebook
TV Info

Fear the Walking Dead

In Los Angeles, a city where people come to escape, shield secrets, and bury their pasts, we follow this mysterious outbreak as it threatens to disrupt what little stability high school guidance counselor Madison Clark and English teacher Travis Manawa have managed to assemble. The pressure of blending two families while dealing with resentful, escapist, and strung out children takes a back seat when society begins to break down. A forced evolution, and survival of the fittest takes hold, as our dysfunctional family finds they must either reinvent themselves or embrace their darker histories.



Details
Name:Fear The Walking Dead S06E16 WEB-DL XviD B4ND1T69
Description:
Fear.The.Walking.Dead.S06E16.WEB-DL.XviD.B4ND1T69



Creators: Dave Erickson, Robert Kirkman
Stars: Kim Dickens, Frank Dillane, Cliff Curtis

Plot/Story:
The Beginning
Everyone desperately scrambles to live out the coming destruction on their own terms.

General
Complete name               : Fear.The.Walking.Dead.S06E16.WEB-DL.XviD.B4ND1T69.avi
Format                      : AVI
Format/Info                 : Audio Video Interleave
File size                   : 513 MiB
Duration                    : 50 min 41 s
Overall bit rate            : 1 415 kb/s
Subtitles                   : Yes...Included(HI)

Video
ID                          : 0
Format                      : MPEG-4 Visual
Format profile              : Advanced [email protected]
Format settings, BVOP       : 2
Format settings, QPel       : No
Format settings, GMC        : No warppoints
Format settings, Matrix     : Default (H.263)
Codec ID                    : XVID
Codec ID/Hint               : XviD
Duration                    : 50 min 41 s
Bit rate                    : 1 273 kb/s
Width                       : 640 pixels
Height                      : 360 pixels
Display aspect ratio        : 16:9
Frame rate                  : 23.976 (24000/1001) FPS
Color space                 : YUV
Chroma subsampling          : 4:2:0
Bit depth                   : 8 bits
Scan type                   : Progressive
Compression mode            : Lossy
Bits/(Pixel*Frame)          : 0.230
Stream size                 : 462 MiB (90%)
Writing library             : XviD 64

Audio
ID                          : 1
Format                      : MPEG Audio
Format version              : Version 1
Format profile              : Layer 3
Codec ID                    : 55
Codec ID/Hint               : MP3
Duration                    : 50 min 41 s
Bit rate mode               : Constant
Bit rate                    : 128 kb/s
Channel(s)                  : 2 channels
Sampling rate               : 48.0 kHz
Compression mode            : Lossy
Stream size                 : 46.4 MiB (9%)
Alignment                   : Aligned on interleaves
Interleave, duration        : 24  ms (0.58 video frame)

Screenshots:







Please Seed For As Long As Possible
Or At Least 1:1 Ratio...Thanks
Enjoy Peeps
YouTube Video:   
Category:TV
Language:English  English
Total Size:512.97 MB
Info Hash:918F5C9DDCB52890CCCD6E770CEF3E6BCC34FA35
Added By:B4ND1T69 Verified UploaderMovie Pirate
Date Added:2021-06-10 19:54:02
Torrent Status:Torrent Verified


Ratings:Not Yet Rated (Log in to rate it)


Tracker:
udp://tracker.opentrackr.org:1337/announce

This Torrent also has backup trackers
URLSeedersLeechersCompleted
udp://tracker.opentrackr.org:1337/announce4914117
udp://exodus.desync.com:6969/announce341082
udp://open.demonii.si:1337/announce000
udp://9.rarbg.to:2750/announce361299
udp://open.stealth.si:80/announce351189
udp://tracker.uw0.xyz:6969/announce371289
udp://tracker.tiny-vps.com:6969/announce000
udp://fasttracker.foreverpirates.co:6969/announce2297
udp://explodie.org:6969/announce2360
udp://tracker.cyberia.is:6969/announce000
udp://ipv4.tracker.harry.lu:80/announce000
udp://opentracker.i2p.rocks:6969/announce411096
udp://tracker.moeking.me:6969/announce311187
udp://opentor.org:2710/announce37982
udp://tracker.dler.org:6969/announce500


File List: 





Comments
No comments still posted