Download Eternals 2021 HDRip XviD B4ND1T69 torrent - GloDLS
Login
Username:
Password:
Remember Me:
[Signup]
[Recover Account]
Friends
Angie Torrents
Friendly Site

Pirateiro
Friendly site

Free Courses Online
Friendly site

ETTV
Friendly site

ProStyleX
Friendly site

KaranPC
Friendly site

P2PDL.com
Friendly site

OneHack
Friendly site

IGGGames
Friendly site

HTML tutorial
Torrent Details For "Eternals 2021 HDRip XviD B4ND1T69"

Eternals 2021 HDRip XviD B4ND1T69

To download this torrent, you need a BitTorrent client: Vuze or BTGuard
Download this torrent
Download using Magnet Link

Health:
Seeds: 345
Leechers: 74
Completed: 3,937 
Last Checked: 15-01-2022 11:19:25

Uploader Reputation points : 1348





Write a Review for the Uploader:   0   Say Thanks with one good review:
Share on Facebook


Details
Name:Eternals 2021 HDRip XviD B4ND1T69
Description:
Eternals.2021.HDRip.XviD.B4ND1T69



Director: Chloé Zhao
Writers: Chloé Zhao(screenplay), Patrick Burleigh(screenplay by), Ryan Firpo(screenplay by)
Stars: Gemma Chan, Richard Madden, Angelina Jolie

Plot/Story:
The saga of the Eternals, a race of immortal beings who lived on Earth and shaped its history and civilizations.

General
Complete name               : Eternals.2021.HDRip.XviD.B4ND1T69.avi
Format                      : AVI
Format/Info                 : Audio Video Interleave
File size                   : 1.27 GiB
Duration                    : 2 h 35 min
Overall bit rate            : 1 169 kb/s
Subtitles                   : Yes...Hardcoded for non-English parts + file included(HI)

Video
ID                          : 0
Format                      : MPEG-4 Visual
Format profile              : Advanced [email protected]
Format settings, BVOP       : 2
Format settings, QPel       : No
Format settings, GMC        : No warppoints
Format settings, Matrix     : Default (H.263)
Codec ID                    : XVID
Codec ID/Hint               : XviD
Duration                    : 2 h 35 min
Bit rate                    : 1 028 kb/s
Width                       : 720 pixels
Height                      : 304 pixels
Display aspect ratio        : 2.35:1
Frame rate                  : 23.976 (24000/1001) FPS
Color space                 : YUV
Chroma subsampling          : 4:2:0
Bit depth                   : 8 bits
Scan type                   : Progressive
Compression mode            : Lossy
Bits/(Pixel*Frame)          : 0.196
Stream size                 : 1.12 GiB (88%)
Writing library             : XviD 64

Audio
ID                          : 1
Format                      : MPEG Audio
Format version              : Version 1
Format profile              : Layer 3
Codec ID                    : 55
Codec ID/Hint               : MP3
Duration                    : 2 h 35 min
Bit rate mode               : Constant
Bit rate                    : 128 kb/s
Channel(s)                  : 2 channels
Sampling rate               : 48.0 kHz
Compression mode            : Lossy
Stream size                 : 143 MiB (11%)
Alignment                   : Aligned on interleaves
Interleave, duration        : 24  ms (0.58 video frame)

Screenshots:










Please Seed For As Long As Possible
Or At Least 1:1 Ratio...Thanks
Enjoy Peeps
YouTube Video:   
Category:Movies
Language:English  English
Total Size:1.27 GB
Info Hash:374D3B6E7E32FD065D804A4CDCE389FC7292D1DC
Added By:B4ND1T69 Verified UploaderMovie Pirate
Date Added:2022-01-13 06:46:55
Torrent Status:Torrent Verified


Ratings:Not Yet Rated (Log in to rate it)


Tracker:
udp://tracker.opentrackr.org:1337/announce

This Torrent also has backup trackers
URLSeedersLeechersCompleted
udp://tracker.opentrackr.org:1337/announce63131,149
udp://tracker2.dler.com:80/announce401
udp://tracker.moeking.me:6969/announce300
udp://9.rarbg.to:2850/announce000
udp://code2chicken.nl:6969/announce301326
udp://opentor.org:2710/announce3611330
udp://exodus.desync.com:6969/announce2910302
udp://explodie.org:6969/announce1020
udp://tracker.zerobytes.xyz:1337/announce353375
udp://9.rarbg.to:2950/announce000
udp://open.stealth.si:80/announce3111423
udp://retracker.netbynet.ru:2710/announce3611330
udp://tracker.torrent.eu.org:451/announce319371
udp://fe.dealclub.de:6969/announce373330
udp://p4p.arenabg.com:1337/announce000


File List: 





Comments
No comments still posted