Download Doctor Strange in the Multiverse of Madness 2022 IMAX WEBRip 2160p UHD HDR DD5 1 gerald99 torrent - GloDLS
Torrent Details For "Doctor Strange in the Multiverse of Madness 2022 IMAX WEBRip 2160p UHD HDR DD5 1 gera..."

Doctor Strange in the Multiverse of Madness 2022 IMAX WEBRip 2160p UHD HDR DD5 1 gera...

To download this torrent, you need a BitTorrent client: Vuze or BTGuard
Download this torrent
Download using Magnet Link

Health:
Seeds: 264
Leechers: 129
Completed: 236 
Last Checked: 23-06-2022 21:26:10

Uploader Reputation points : 1095





Write a Review for the Uploader:   10   Say Thanks with one good review:
Share on Facebook


Details
Name:Doctor Strange in the Multiverse of Madness 2022 IMAX WEBRip 2160p UHD HDR DD5 1 gera...
Description:


https://www.imdb.com/title/tt9419884/
2022 PG-13 2h6m Action Adventure Fantasy7.3/10
Stars Benedict Cumberbatch Elizabeth Olsen Chiwetel Ejiofor
Taglines Enter a new dimension of Strange.

Storyline
Doctor Strange teams up with a mysterious teenage girl from his dreams who can travel across multiverses, to battle multiple threats, including other-universe versions of himself, which threaten to wipe out millions across the multiverse. They seek help from Wanda the Scarlet Witch, Wong and others.

Format                                   : Matroska
Format version                           : Version 4
File size                                : 8.99 GiB
Duration                                 : 2 h 6 min
Overall bit rate                         : 10.2 Mb/s
Movie name                               : Doctor Strange in the Multiverse of Madness IMAX
Encoded date                             : UTC 2022-06-23 12:38:40
Writing application                      : mkvmerge v67.0.0 ('Under Stars') 64-bit
Writing library                          : libebml v1.4.2 + libmatroska v1.6.4

Video
ID                                       : 1
Format                                   : HEVC
Format/Info                              : High Efficiency Video Coding
Format profile                           : Main [email protected]@High
HDR format                               : SMPTE ST 2086, HDR10 compatible
Codec ID                                 : V_MPEGH/ISO/HEVC
Duration                                 : 2 h 6 min
Bit rate                                 : 9 530 kb/s
Width                                    : 3 840 pixels
Height                                   : 2 160 pixels
Display aspect ratio                     : 16:9
Frame rate mode                          : Constant
Frame rate                               : 23.976 (24000/1001) FPS
Color space                              : YUV
Chroma subsampling                       : 4:2:0 (Type 2)
Bit depth                                : 10 bits
Bits/(Pixel*Frame)                       : 0.048
Stream size                              : 8.42 GiB (94%)
Title                                    : Doctor Strange in the Multiverse of Madness IMAX
Default                                  : Yes
Forced                                   : No
Color range                              : Limited
Color primaries                          : BT.2020
Transfer characteristics                 : PQ
Matrix coefficients                      : BT.2020 non-constant
Mastering display color primaries        : BT.2020
Mastering display luminance              : min: 0.0000 cd/m2, max: 1000 cd/m2

Audio
ID                                       : 2
Format                                   : AC-3
Format/Info                              : Audio Coding 3
Commercial name                          : Dolby Digital
Codec ID                                 : A_AC3
Duration                                 : 2 h 6 min
Bit rate mode                            : Constant
Bit rate                                 : 640 kb/s
Channel(s)                               : 6 channels
Channel layout                           : L R C LFE Ls Rs
Sampling rate                            : 48.0 kHz
Frame rate                               : 31.250 FPS (1536 SPF)
Bit depth                                : 16 bits
Compression mode                         : Lossy
Stream size                              : 579 MiB (6%)
Title                                    : Dolby Digital 5.1
Language                                 : English
Service kind                             : Complete Main
Default                                  : Yes
Forced                                   : No

Text #1
ID                                       : 3
Format                                   : UTF-8
Codec ID                                 : S_TEXT/UTF8
Codec ID/Info                            : UTF-8 Plain Text
Duration                                 : 25 min 8 s
Bit rate                                 : 1 b/s
Count of elements                        : 10
Stream size                              : 265 Bytes (0%)
Title                                    : Forced
Language                                 : English
Default                                  : Yes
Forced                                   : Yes

Text #2
ID                                       : 4
Format                                   : UTF-8
Codec ID                                 : S_TEXT/UTF8
Codec ID/Info                            : UTF-8 Plain Text
Duration                                 : 2 h 5 min
Bit rate                                 : 37 b/s
Count of elements                        : 1249
Stream size                              : 34.3 KiB (0%)
Language                                 : English
Default                                  : Yes
Forced                                   : No

YouTube Video:   
Category:Movies
Language:English  English
Total Size:8.99 GB
Info Hash:131420B25288B98D003C3C1497794A5AC0BC98A4
Added By:gerald99 VIP
Date Added:2022-06-23 22:15:47
Torrent Status:Torrent Verified


Ratings:Not Yet Rated (Log in to rate it)


Tracker:
udp://tracker.opentrackr.org:1337/announce

This Torrent also has backup trackers
URLSeedersLeechersCompleted
udp://tracker.opentrackr.org:1337/announce361950
udp://fe.dealclub.de:6969/announce331119
udp://bt2.archive.org:6969/announce130
udp://movies.zsw.ca:6969/announce321121
udp://tracker.zerobytes.xyz:1337/announce321219
udp://tracker.0x.tf:6969/announce331114
udp://tracker.altrosky.nl:6969/announce321118
udp://open.stealth.si:80/announce81730
udp://tracker.torrent.eu.org:451/announce201330
udp://ipv4.tracker.harry.lu:80/announce341235
udp://p4p.arenabg.com:1337/announce260
udp://tracker.moeking.me:6969/announce000
udp://tracker.dler.org:6969/announce130


File List: 





Comments
No comments still posted