Download Climate of the Hunter (2020) 720p English HDRip x264 AAC By Full4Movies mkv torrent - GloDLS
Torrent Details For "Climate of the Hunter (2020) 720p English HDRip x264 AAC By Full4Movies mkv"

Climate of the Hunter (2020) 720p English HDRip x264 AAC By Full4Movies mkv

To download this torrent, you need a BitTorrent client: Vuze or BTGuard
Download this torrent
Download using Magnet Link

Health:
Seeds: 8
Leechers: 0
Completed:
Last Checked: 13-01-2021 06:15:00

Uploader Reputation points : 4205
External: Torrent






Write a Review for the Uploader:   5   Say Thanks with one good review:
Share on Facebook


Details
Name:Climate of the Hunter (2020) 720p English HDRip x264 AAC By Full4Movies mkv
Description:


Visit Us = https://full4movies.xyz/



General
Complete name                  : Climate of the Hunter (2020) 720p English HDRip x264 AAC By Full4Movies.mkv
Format                         : Matroska
Format version                 : Version 4
File size                      : 795 MiB
Duration                       : 1 h 21 min
Overall bit rate               : 1 362 kb/s
Encoded date                   : UTC 2021-01-13 04:51:21
Writing application            : mkvmerge v8.0.0 ('Til The Day That I Die') 32bit
Writing library                : libebml v1.3.1 + libmatroska v1.4.2

Video
ID                             : 1
Format                         : AVC
Format/Info                    : Advanced Video Codec
Format profile                 : [email protected]
Format settings                : CABAC / 4 Ref Frames
Format settings, CABAC         : Yes
Format settings, Reference fra : 4 frames
Codec ID                       : V_MPEG4/ISO/AVC
Duration                       : 1 h 21 min
Bit rate                       : 1 264 kb/s
Width                          : 1 280 pixels
Height                         : 960 pixels
Display aspect ratio           : 4:3
Frame rate mode                : Variable
Frame rate                     : 23.976 FPS
Color space                    : YUV
Chroma subsampling             : 4:2:0
Bit depth                      : 8 bits
Scan type                      : Progressive
Bits/(Pixel*Frame)             : 0.043
Stream size                    : 738 MiB (93%)
Writing library                : x264 core 157
Language                       : English
Default                        : Yes
Forced                         : No

Audio
ID                             : 2
Format                         : AAC LC
Format/Info                    : Advanced Audio Codec Low Complexity
Codec ID                       : A_AAC-2
Duration                       : 1 h 21 min
Bit rate                       : 96.0 kb/s
Channel(s)                     : 2 channels
Channel layout                 : L R
Sampling rate                  : 48.0 kHz
Frame rate                     : 46.875 FPS (1024 SPF)
Compression mode               : Lossy
Stream size                    : 56.1 MiB (7%)
Language                       : English
Default                        : Yes
Forced                         : No

Screen Shoots
YouTube Video:
Category:Movies
Language:English  English
Total Size:795.39 MB
Info Hash:0B6DCACD85266887BB990D3F9A3F4C0E183E2D62
Added By:india4movie Verified Uploader
Date Added:2021-01-13 14:13:59
Torrent Status:Torrent Verified


Ratings:Not Yet Rated (Log in to rate it)


Tracker:
udp://tracker.opentrackr.org:1337/announce

This Torrent also has backup trackers
URLSeedersLeechersCompleted
udp://tracker.opentrackr.org:1337/announce100
udp://tracker.cyberia.is:6969/announce100
udp://9.rarbg.me:2980/announce000
udp://open.stealth.si:80/announce100
udp://exodus.desync.com:6969/announce000
udp://tracker.moeking.me:6969/announce000
udp://explodie.org:6969/announce000
udp://tracker.openbittorrent.com:80/announce100
udp://inferno.demonoid.is:3391/announce100
udp://tracker.torrent.eu.org:451/announce100
udp://ipv4.tracker.harry.lu:80/announce000
udp://tracker.uw0.xyz:6969/announce100
udp://tracker.coppersurfer.tk:6969/announce000
udp://exodus.desync.com:6969/announce000
udp://tracker.tiny-vps.com:6969/announce100


File List: 





Comments
No comments still posted