Download City of Dreams (2021) HEVC 720p WEB-HDRip Hindi ORG S02 (EP 01 TO 10) x264 AAC DD 2 0 By Full4Movies torrent - GloDLS
Login
Username:
Password:
Remember Me:
[Signup]
[Recover Account]
Friends
Angie Torrents
Friendly Site

Pirateiro
Friendly site

Free Courses Online
Friendly site

ETTV
Friendly site

ProStyleX
Friendly site

KaranPC
Friendly site

P2PDL.com
Friendly site

OneHack
Friendly site

IGGGames
Friendly site

HTML tutorial
Torrent Details For "City of Dreams (2021) HEVC 720p WEB-HDRip Hindi ORG S02 (EP 01 TO 10) x264 AAC DD 2 0..."

City of Dreams (2021) HEVC 720p WEB-HDRip Hindi ORG S02 (EP 01 TO 10) x264 AAC DD 2 0...

To download this torrent, you need a BitTorrent client: Vuze or BTGuard
Download this torrent
Download using Magnet Link

Health:
Seeds: 68
Leechers: 14
Completed: 1,130 
Last Checked: 10-09-2021 17:50:31

Uploader Reputation points : 6416





Write a Review for the Uploader:   5   Say Thanks with one good review:
Share on Facebook


Details
Name:City of Dreams (2021) HEVC 720p WEB-HDRip Hindi ORG S02 (EP 01 TO 10) x264 AAC DD 2 0...
Description:


Visit Us = https://www.full4movies.org/



General
Complete name                  : City of Dreams (2021) HEVC 720p WEB-HDRip Hindi ORG S02 (EP 01 TO 10) x264 AAC DD 2.0 By Full4Movies
Format                         : Matroska
Format version                 : Version 4 / Version 2
File size                      : 1.01 GiB
Duration                       : 3 h 32 min
Overall bit rate               : 681 kb/s
Encoded date                   : UTC 2021-08-01 07:41:45
Writing application            : mkvmerge v8.3.0 ('Over the Horizon') 64bit
Writing library                : libebml v1.3.1 + libmatroska v1.4.2
Attachments                    : 383845052472320.jpg

Video
ID                             : 1
Format                         : HEVC
Format/Info                    : High Efficiency Video Coding
Format profile                 : [email protected]@Main
Codec ID                       : V_MPEGH/ISO/HEVC
Duration                       : 3 h 32 min
Bit rate                       : 623 kb/s
Width                          : 1 280 pixels
Height                         : 676 pixels
Display aspect ratio           : 1.896
Original display aspect ratio  : 1.897
Frame rate mode                : Constant
Frame rate                     : 25.000 FPS
Color space                    : YUV
Chroma subsampling             : 4:2:0
Bit depth                      : 8 bits
Bits/(Pixel*Frame)             : 0.029
Stream size                    : 948 MiB (91%)
Writing library                : x265 2.1:[Windows][GCC 5.3.1][64 bit] 8bit
Default                        : Yes
Forced                         : No
Color range                    : Limited
Color primaries                : BT.709
Transfer characteristics       : BT.709
Matrix coefficients            : BT.709

Audio
ID                             : 2
Format                         : AAC
Format/Info                    : Advanced Audio Codec
Format profile                 : HE-AAC / LC
Codec ID                       : A_AAC
Duration                       : 3 h 32 min
Bit rate                       : 56.0 kb/s
Channel(s)                     : 2 channels
Channel positions              : Front: L R
Sampling rate                  : 48.0 kHz / 24.0 kHz
Frame rate                     : 23.438 FPS (1024 SPF)
Compression mode               : Lossy
Stream size                    : 85.2 MiB (8%)
Language                       : Hindi
Default                        : Yes
Forced                         : No

Text #1
ID                             : 3
Format                         : ASS
Codec ID                       : S_TEXT/ASS
Codec ID/Info                  : Advanced Sub Station Alpha
Duration                       : 3 h 30 min
Bit rate                       : 96 b/s
Count of elements              : 2653
Compression mode               : Lossless
Stream size                    : 149 KiB (0%)
Title                          : ESub
Language                       : English
Default                        : No
Forced                         : No

Screen Shoots






YouTube Video:
Category:TV
Language:Hindi  Hindi
Total Size:2.07 GB
Info Hash:259294D5910427B0DEED66AEFD34B90005648EDB
Added By:india4movie Verified Uploader
Date Added:2021-08-01 18:35:57
Torrent Status:Torrent Verified


Ratings:Not Yet Rated (Log in to rate it)


Tracker:
udp://tracker.opentrackr.org:1337/announce

This Torrent also has backup trackers
URLSeedersLeechersCompleted
udp://tracker.opentrackr.org:1337/announce23376
udp://tracker.cyberia.is:6969/announce000
udp://9.rarbg.me:2980/announce000
udp://open.stealth.si:80/announce82576
udp://exodus.desync.com:6969/announce5225
udp://tracker.moeking.me:6969/announce711
udp://explodie.org:6969/announce000
udp://tracker.openbittorrent.com:80/announce000
udp://inferno.demonoid.is:3391/announce4015
udp://tracker.torrent.eu.org:451/announce92404
udp://ipv4.tracker.harry.lu:80/announce000
udp://tracker.uw0.xyz:6969/announce000
udp://tracker.coppersurfer.tk:6969/announce000
udp://exodus.desync.com:6969/announce5225
udp://tracker.tiny-vps.com:6969/announce728


File List: 





Comments
No comments still posted