Download Chappie - Humandroid (2015) 1080p H264 ita eng Ac3-5 1 sub ita eng-MIRCrew torrent - GloDLS
Login
Username:
Password:
Remember Me:
[Signup]
[Recover Account]
Friends
Angie Torrents
Friendly Site

Pirateiro
Friendly site

Free Courses Online
Friendly site

ETTV
Friendly site

KaranPC
Friendly site

P2PDL.com
Friendly site

OneHack
Friendly site

IGGGames
Friendly site

Torrent Details For "Chappie - Humandroid (2015) 1080p H264 ita eng Ac3-5 1 sub ita eng-MIRCrew"

Chappie - Humandroid (2015) 1080p H264 ita eng Ac3-5 1 sub ita eng-MIRCrew

To download this torrent, you need a BitTorrent client: Vuze or BTGuard
Download this torrent
Download using Magnet Link

Health:
Seeds: 46
Leechers: 2
Completed: 647 
Last Checked: 22-10-2020 13:06:14

Uploader Reputation points : 3876
External: Torrent






Write a Review for the Uploader:   5   Say Thanks with one good review:
Share on Facebook


Details
Name:Chappie - Humandroid (2015) 1080p H264 ita eng Ac3-5 1 sub ita eng-MIRCrew
Description:
Chappie - Humandroid (2015).1080p.H264.ita.eng.Ac3-5.1.sub.ita.eng-MIRCrew


NO FOUND ONLY ORIGINAL RELEASE


My release is always in double track audio italian and Original audio
for select it use VLC or dvd player home
not use wmp

Humandroid - Chappie (2015)

Quality MIRCrew on HD 1080p da 2,8 gb







 

DATA USCITA: 09 aprile 2015
GENERE: Commedia , Sentimentale , Fantascienza
ANNO: 2015
REGIA: Neill Blomkamp
SCENEGGIATURA: Neill Blomkamp, Terri Tatchell
FOTOGRAFIA: Trent Opaloch
MONTAGGIO: Julian Clarke, Mark Goldblatt
MUSICHE: Hans Zimmer
PRODUZIONE: Alpha Core, Media Rights Capital, Simon Kinberg Productions, Sony Pictures Entertainment
DISTRIBUZIONE: Warner Bros.
PAESE: USA
DURATA: 120 Min



Dev Patel, Sigourney Weaver, Hugh Jackman, Sharlto Copley, Jose Pablo Cantillo, Anderson Cooper, Jason Cope, Kevin Otto, Chris Shields, Robert Hobbs



Ogni bambino viene al mondo pieno di promesse, e cosi è per Chappie che è straordinariamente dotato, unico nel suo genere, un prodigio. Come ogni altro bambino Chappie dovrà farsi strada nel mondo con il cuore e con l'anima, tra influenze buone e cattive, per trovare la sua strada e diventare un uomo. Ma c’è una cosa che rende Chappie diverso da ogni altro bambino: Chappie è un robot. Il primo robot capace di pensare e provare emozioni. Ed è proprio per questo che in molti vorrebbero fosse l'ultimo della sua specie...



In the near future, crime is patrolled by a mechanized police force. When one police droid, Chappie, is stolen and given new programming, he becomes the first robot with the ability to think and feel for himself.

 


















General

Complete name                            : Humandroid - Chappie (2015).1080p.h264.ita.eng.sub.ita.eng-MIRCrew\Humandroid - Chappie (2015).1080p.h264.ita.eng.sub.ita.eng-MIRCrew.mkv
Format                                   : Matroska
Format version                           : Version 2
File size                                : 2.85 GiB
Duration                                 : 2h 0mn
Overall bit rate                         : 3 396 Kbps
Movie name                               : MIRCrew
Encoded date                             : UTC 2020-09-25 14:19:36
Writing application                      : mkvmerge v5.8.0 ('No Sleep / Pillow') built on Sep  2 2012 15:37:04
Writing library                          : libebml v1.2.3 + libmatroska v1.3.0

Video
ID                                       : 1
Format                                   : AVC
Format/Info                              : Advanced Video Codec
Format profile                           : [email protected]
Format settings, CABAC                   : Yes
Format settings, ReFrames                : 4 frames
Codec ID                                 : V_MPEG4/ISO/AVC
Duration                                 : 2h 0mn
Bit rate                                 : 2 500 Kbps
Width                                    : 1 920 pixels
Height                                   : 800 pixels
Display aspect ratio                     : 2.40:1
Frame rate                               : 23.976 fps
Color space                              : YUV
Chroma subsampling                       : 4:2:0
Bit depth                                : 8 bits
Scan type                                : Progressive
Bits/(Pixel*Frame)                       : 0.068
Stream size                              : 2.04 GiB (72%)
Title                                    : MIRCrew
Writing library                          : x264 core 152 r2851M ba24899
Encoding settings                        : cabac=1 / ref=4 / deblock=1:-1:-1 / analyse=0x3:0x113 / me=umh / subme=9 / psy=1 / psy_rd=1.00:0.15 / mixed_ref=1 / me_range=24 / chroma_me=1 / trellis=2 / 8x8dct=1 / cqm=0 / deadzone=21,11 / fast_pskip=1 / chroma_qp_offset=-3 / threads=32 / lookahead_threads=4 / sliced_threads=0 / nr=0 / decimate=1 / interlaced=0 / bluray_compat=0 / constrained_intra=0 / bframes=3 / b_pyramid=2 / b_adapt=2 / b_bias=0 / direct=3 / weightb=1 / open_gop=0 / weightp=2 / keyint=250 / keyint_min=25 / scenecut=40 / intra_refresh=0 / rc_lookahead=50 / rc=2pass / mbtree=1 / bitrate=2500 / ratetol=1.0 / qcomp=0.60 / qpmin=0 / qpmax=69 / qpstep=4 / cplxblur=20.0 / qblur=0.5 / vbv_maxrate=31250 / vbv_bufsize=31250 / nal_hrd=none / filler=0 / ip_ratio=1.40 / aq=3:1.00
Language                                 : Italian
Default                                  : Yes
Forced                                   : No

Audio #1
ID                                       : 2
Format                                   : AC-3
Format/Info                              : Audio Coding 3
Mode extension                           : CM (complete main)
Codec ID                                 : A_AC3
Duration                                 : 2h 0mn
Bit rate mode                            : Constant
Bit rate                                 : 448 Kbps
Channel(s)                               : 6 channels
Channel positions                        : Front: L C R, Side: L R, LFE
Sampling rate                            : 48.0 KHz
Bit depth                                : 16 bits
Compression mode                         : Lossy
Stream size                              : 386 MiB (13%)
Title                                    : Ita Ac3 5.1
Language                                 : Italian
Default                                  : Yes
Forced                                   : No

Audio #2
ID                                       : 3
Format                                   : AC-3
Format/Info                              : Audio Coding 3
Mode extension                           : CM (complete main)
Codec ID                                 : A_AC3
Duration                                 : 2h 0mn
Bit rate mode                            : Constant
Bit rate                                 : 448 Kbps
Channel(s)                               : 6 channels
Channel positions                        : Front: L C R, Side: L R, LFE
Sampling rate                            : 48.0 KHz
Bit depth                                : 16 bits
Compression mode                         : Lossy
Stream size                              : 386 MiB (13%)
Title                                    : Eng Ac3 5.1
Language                                 : English
Default                                  : No
Forced                                   : No




YouTube Video:
Category:Movies
Language:English  English
Total Size:2.89 GB
Info Hash:A41356E0CD7A768C26A6B139DBEB795B8C3C18A0
Added By:MIRCrewRS Verified Uploader
Date Added:2020-09-28 02:54:51
Torrent Status:Torrent Verified


Ratings:Not Yet Rated (Log in to rate it)


Tracker:
udp://tracker.torrent.eu.org:451/announce

This Torrent also has backup trackers
URLSeedersLeechersCompleted
udp://tracker.torrent.eu.org:451/announce81141
udp://tracker.coppersurfer.tk:6969/announce000
udp://tracker.torrent.eu.org:451/announce81141
udp://tracker.pirateparty.gr:6969/announce000
udp://tracker.leechers-paradise.org:6969/announce2048
udp://tracker.cyberia.is:6969/announce3068
udp://tracker.iamhansen.xyz:2000/announce000
udp://p4p.arenabg.com:1337/announce000
udp://explodie.org:6969/announce300
udp://tracker.opentrackr.org:1337/announce50100
udp://tracker.tiny-vps.com:6969/announce4069
udp://exodus.desync.com:6969/announce200
udp://ipv4.tracker.harry.lu:80/announce400
udp://open.stealth.si:80/announce4079
udp://9.rarbg.to:2710/announce301


File List: 





Comments
No comments still posted