Download Casino Royale 2006 BRRip 2160p UDH HDR MultiSubs DD5 1 gerald99 torrent - GloDLS
Login
Username:
Password:
Remember Me:
[Signup]
[Recover Account]
Friends
Angie Torrents
Friendly Site

Pirateiro
Friendly site

Free Courses Online
Friendly site

ETTV
Friendly site

ProStyleX
Friendly site

KaranPC
Friendly site

P2PDL.com
Friendly site

OneHack
Friendly site

IGGGames
Friendly site

Torrent Details For "Casino Royale 2006 BRRip 2160p UDH HDR MultiSubs DD5 1 gerald99"

Casino Royale 2006 BRRip 2160p UDH HDR MultiSubs DD5 1 gerald99

To download this torrent, you need a BitTorrent client: Vuze or BTGuard
Download this torrent
Download using Magnet Link

Health:
Seeds: 24
Leechers: 17
Completed: 12 
Last Checked: 13-05-2022 12:59:57

Uploader Reputation points : 1009





Write a Review for the Uploader:   10   Say Thanks with one good review:
Share on Facebook


Details
Name:Casino Royale 2006 BRRip 2160p UDH HDR MultiSubs DD5 1 gerald99
Description:


2006 PG-13 2h24m Action Adventure Thriller 8.0/10
Stars Daniel Craig Eva Green Judi Dench
Tagline Everyone has a past. Every legend has a beginning. On November 17th, discover how James...became Bond.
Additional Subs: Arabic, Chinese(Cantonese), Chinese(Mandarin Traditional), Croation, Czech, Danish, Dutch, Finnish, French, German, Greek, Hebrew, Hindi, Hungarian, Icelandic, Indonesian, Italian, Japanese, Korean, Norwegian, Polish, Portuguses, Romanian, Russian, Serbian, Slovenian, Spanish(Castilian), Spanish(Latin American), Swedish, Thai, Turkish.

Storyline
James Bond (Daniel Craig) goes on his first mission as a 00. Le Chiffre (Mads Mikkelsen) is a banker to the world's terrorists. He is participating in a poker game at Montenegro, where he must win back his money, in order to stay safe amongst the terrorist market. The boss of MI6, known simply as "M" (Dame Judi Dench) sends Bond, along with Vesper Lynd Eva Green) to attend this game and prevent Le Chiffre from winning. Bond, using help from Felix Leiter (Jeffrey Wright), Rene Mathis (Giancarlo Giannini), and having Vesper pose as his partner, enters the most important poker game in his already dangerous career. But if Bond defeats Le Chiffre, will he and Vesper Lynd remain safe?

Format                                   : Matroska
Format version                           : Version 4
File size                                : 10.6 GiB
Duration                                 : 2 h 24 min
Overall bit rate                         : 10.5 Mb/s
Movie name                               : Casino Royale
Encoded date                             : UTC 2022-05-13 10:11:38
Writing application                      : mkvmerge v66.0.0 ('Josie') 64-bit
Writing library                          : libebml v1.4.2 + libmatroska v1.6.4

Video
ID                                       : 1
Format                                   : HEVC
Format/Info                              : High Efficiency Video Coding
Format profile                           : Main [email protected]@High
HDR format                               : SMPTE ST 2086, HDR10 compatible
Codec ID                                 : V_MPEGH/ISO/HEVC
Duration                                 : 2 h 24 min
Bit rate                                 : 9 683 kb/s
Width                                    : 3 840 pixels
Height                                   : 2 160 pixels
Display aspect ratio                     : 16:9
Frame rate mode                          : Constant
Frame rate                               : 23.976 (24000/1001) FPS
Color space                              : YUV
Chroma subsampling                       : 4:2:0 (Type 2)
Bit depth                                : 10 bits
Bits/(Pixel*Frame)                       : 0.049
Stream size                              : 9.78 GiB (92%)
Default                                  : Yes
Forced                                   : No
Color range                              : Limited
Color primaries                          : BT.2020
Transfer characteristics                 : PQ
Matrix coefficients                      : BT.2020 non-constant
Mastering display color primaries        : Display P3
Mastering display luminance              : min: 0.0001 cd/m2, max: 1000 cd/m2

Audio
ID                                       : 2
Format                                   : AC-3
Format/Info                              : Audio Coding 3
Commercial name                          : Dolby Digital
Codec ID                                 : A_AC3
Duration                                 : 2 h 24 min
Bit rate mode                            : Constant
Bit rate                                 : 640 kb/s
Channel(s)                               : 6 channels
Channel layout                           : L R C LFE Ls Rs
Sampling rate                            : 48.0 kHz
Frame rate                               : 31.250 FPS (1536 SPF)
Compression mode                         : Lossy
Stream size                              : 662 MiB (6%)
Title                                    : Dolby Digital 5.1
Language                                 : English
Service kind                             : Complete Main
Default                                  : No
Forced                                   : No

Text #1
ID                                       : 3
Format                                   : PGS
Muxing mode                              : zlib
Codec ID                                 : S_HDMV/PGS
Codec ID/Info                            : Picture based subtitle format used on BDs/HD-DVDs
Duration                                 : 2 h 23 min
Bit rate                                 : 20.1 kb/s
Count of elements                        : 2084
Stream size                              : 20.6 MiB (0%)
Language                                 : English
Default                                  : No
Forced                                   : No

YouTube Video:   
Category:Movies
Language:English  English
Total Size:10.60 GB
Info Hash:39FD09F3CA8BFF053B0E526346A22B25F1A473E0
Added By:gerald99 VIP
Date Added:2022-05-13 19:25:41
Torrent Status:Torrent Verified


Ratings:Not Yet Rated (Log in to rate it)


Tracker:
udp://tracker.opentrackr.org:1337/announce

This Torrent also has backup trackers
URLSeedersLeechersCompleted
udp://tracker.opentrackr.org:1337/announce321
udp://fe.dealclub.de:6969/announce322
udp://bt2.archive.org:6969/announce331
udp://movies.zsw.ca:6969/announce322
udp://tracker.zerobytes.xyz:1337/announce321
udp://tracker.0x.tf:6969/announce322
udp://tracker.altrosky.nl:6969/announce322
udp://open.stealth.si:80/announce321


File List: 





Comments
No comments still posted