Download Bringing Out The Dead 1999 HDRip XviD B4ND1T69 torrent - GloDLS
Login
Username:
Password:
Remember Me:
[Signup]
[Recover Account]
Friends
Angie Torrents
Friendly Site

Pirateiro
Friendly site

Free Courses Online
Friendly site

ETTV
Friendly site

ProStyleX
Friendly site

KaranPC
Friendly site

P2PDL.com
Friendly site

OneHack
Friendly site

IGGGames
Friendly site

Torrent Details For "Bringing Out The Dead 1999 HDRip XviD B4ND1T69"

Bringing Out The Dead 1999 HDRip XviD B4ND1T69

To download this torrent, you need a BitTorrent client: Vuze or BTGuard
Download this torrent
Download using Magnet Link

Health:
Seeds: 27
Leechers: 14
Completed: 118 
Last Checked: 04-05-2021 23:37:19

Uploader Reputation points : 778
External: Torrent






Write a Review for the Uploader:   0   Say Thanks with one good review:
Share on Facebook


Details
Name:Bringing Out The Dead 1999 HDRip XviD B4ND1T69
Description:
Bringing.Out.The.Dead.1999.HDRip.XviD.B4ND1T69



Director: Martin Scorsese
Writers: Joe Connelly (novel), Paul Schrader (screenplay)
Stars: Nicolas Cage, Patricia Arquette, John Goodman

Plot/Story:
Haunted by the patients he failed to save, an extremely burned-out Manhattan ambulance paramedic fights to maintain his sanity over three fraught and turbulent nights.

General
Complete name               : Bringing.Out.The.Dead.1999.HDRip.XviD.B4ND1T69.avi
Format                      : AVI
Format/Info                 : Audio Video Interleave
File size                   : 1.27 GiB
Duration                    : 2 h 1 min
Overall bit rate            : 1 498 kb/s
Subtitles                   : Yes...Included(HI)

Video
ID                          : 0
Format                      : MPEG-4 Visual
Format profile              : Advanced [email protected]
Format settings, BVOP       : 2
Format settings, QPel       : No
Format settings, GMC        : No warppoints
Format settings, Matrix     : Default (H.263)
Codec ID                    : XVID
Codec ID/Hint               : XviD
Duration                    : 2 h 1 min
Bit rate                    : 1 357 kb/s
Width                       : 720 pixels
Height                      : 304 pixels
Display aspect ratio        : 2.35:1
Frame rate                  : 23.976 (24000/1001) FPS
Color space                 : YUV
Chroma subsampling          : 4:2:0
Bit depth                   : 8 bits
Scan type                   : Progressive
Compression mode            : Lossy
Bits/(Pixel*Frame)          : 0.259
Stream size                 : 1.15 GiB (91%)
Writing library             : XviD 64

Audio
ID                          : 1
Format                      : MPEG Audio
Format version              : Version 1
Format profile              : Layer 3
Codec ID                    : 55
Codec ID/Hint               : MP3
Duration                    : 2 h 1 min
Bit rate mode               : Constant
Bit rate                    : 128 kb/s
Channel(s)                  : 2 channels
Sampling rate               : 48.0 kHz
Compression mode            : Lossy
Stream size                 : 111 MiB (9%)
Alignment                   : Aligned on interleaves
Interleave, duration        : 24  ms (0.58 video frame)

Screenshots:










Please Seed For As Long As Possible
Or At Least 1:1 Ratio...Thanks
Enjoy Peeps
YouTube Video:   
Category:Movies
Language:English  English
Total Size:1.27 GB
Info Hash:86272CE14D611E9DFB33F7CC824845BAED626563
Added By:B4ND1T69 Verified UploaderMovie Pirate
Date Added:2021-05-04 21:06:51
Torrent Status:Torrent Verified


Ratings:Not Yet Rated (Log in to rate it)


Tracker:
udp://tracker.opentrackr.org:1337/announce

This Torrent also has backup trackers
URLSeedersLeechersCompleted
udp://tracker.opentrackr.org:1337/announce7423
udp://exodus.desync.com:6969/announce1010
udp://open.demonii.si:1337/announce000
udp://9.rarbg.to:2750/announce6222
udp://open.stealth.si:80/announce2113
udp://tracker.uw0.xyz:6969/announce2112
udp://tracker.tiny-vps.com:6969/announce000
udp://fasttracker.foreverpirates.co:6969/announce000
udp://explodie.org:6969/announce100
udp://tracker.cyberia.is:6969/announce000
udp://ipv4.tracker.harry.lu:80/announce200
udp://opentracker.i2p.rocks:6969/announce3518
udp://tracker.moeking.me:6969/announce1010
udp://opentor.org:2710/announce2110
udp://tracker.dler.org:6969/announce000


File List: 





Comments
No comments still posted