Download Bring Me Home / Nareul chajajwo (2019) Rus Kor (Rus Eng Subs) BDRip ViruseProject torrent - GloDLS
HTML tutorial
Torrent Details For "Bring Me Home / Nareul chajajwo (2019) Rus Kor (Rus Eng Subs) BDRip ViruseProject"

Bring Me Home / Nareul chajajwo (2019) Rus Kor (Rus Eng Subs) BDRip ViruseProject

To download this torrent, you need a BitTorrent client: Vuze or BTGuard
Download this torrent
Download using Magnet Link

Health:
Seeds: 116
Leechers: 57
Completed: 322 
Last Checked: 17-10-2021 18:16:39

Uploader Reputation points : 204





Write a Review for the Uploader:   0   Say Thanks with one good review:
Share on Facebook


Details
Name:Bring Me Home / Nareul chajajwo (2019) Rus Kor (Rus Eng Subs) BDRip ViruseProject
Description:


https://www.imdb.com/title/tt8123618

https://www.youtube.com/watch?v=mpXd6QaikWI






Video
ID                                       : 0
Format                                   : MPEG-4 Visual
Format profile                           : Advanced [email protected]
Format settings                          : BVOP3
Format settings, BVOP                    : 3
Format settings, QPel                    : No
Format settings, GMC                     : No warppoints
Format settings, Matrix                  : Default (H.263)
Codec ID                                 : XVID
Codec ID/Hint                            : XviD
Duration                                 : 1 h 48 min
Bit rate                                 : 1 895 kb/s
Width                                    : 720 pixels
Height                                   : 302 pixels
Display aspect ratio                     : 2.40:1
Frame rate                               : 23.976 (24000/1001) FPS
Color space                              : YUV
Chroma subsampling                       : 4:2:0
Bit depth                                : 8 bits
Scan type                                : Progressive
Compression mode                         : Lossy
Bits/(Pixel*Frame)                       : 0.363
Stream size                              : 1.43 GiB (83%)
Writing library                          : XviD 69

Audio #1
ID                                       : 1
Format                                   : AC-3
Format/Info                              : Audio Coding 3
Commercial name                          : Dolby Digital
Codec ID                                 : 2000
Duration                                 : 1 h 48 min
Bit rate mode                            : Constant
Bit rate                                 : 192 kb/s
Channel(s)                               : 2 channels
Channel layout                           : L R
Sampling rate                            : 48.0 kHz
Frame rate                               : 31.250 FPS (1536 SPF)
Compression mode                         : Lossy
Stream size                              : 148 MiB (8%)
Alignment                                : Split across interleaves
Interleave, duration                     : 42  ms (1.00 video frame)
Interleave, preload duration             : 500  ms
Service kind                             : Complete Main

Audio #2
ID                                       : 2
Format                                   : AC-3
Format/Info                              : Audio Coding 3
Commercial name                          : Dolby Digital
Codec ID                                 : 2000
Duration                                 : 1 h 48 min
Bit rate mode                            : Constant
Bit rate                                 : 192 kb/s
Channel(s)                               : 2 channels
Channel layout                           : L R
Sampling rate                            : 48.0 kHz
Frame rate                               : 31.250 FPS (1536 SPF)
Compression mode                         : Lossy
Stream size                              : 148 MiB (8%)
Alignment                                : Split across interleaves
Interleave, duration                     : 42  ms (1.00 video frame)
Interleave, preload duration             : 500  ms
Service kind                             : Complete Main

YouTube Video:   
Category:Movies
Language:Russian  Russian
Total Size:1.73 GB
Info Hash:983772BE9A0079F665101159FBE5C14E135CC0D4
Added By:viruse UploaderTV Uploader
Date Added:2021-10-17 16:51:00
Torrent Status:Torrent Verified by Prom3th3uS Super AdministratorMovie PirateVIP on 17th October, 2021


Ratings:Not Yet Rated (Log in to rate it)


Tracker:
udp://opentor.org:2710/announce

This Torrent also has backup trackers
URLSeedersLeechersCompleted
udp://opentor.org:2710/announce171142
udp://tracker.torrent.eu.org:451/announce19843
udp://tracker.cyberia.is:6969/announce000
udp://exodus.desync.com:6969/announce18749
udp://tracker.moeking.me:6969/announce850
udp://tracker.opentrackr.org:1337/announce10530
udp://tracker.tiny-vps.com:6969/announce2755
udp://open.stealth.si:80/announce24751
udp://tracker.iamhansen.xyz:2000/announce000
udp://tracker.theoks.net:6969/announce18752
udp://retracker.lanta-net.ru:2710/announce000
udp://open.demonii.si:1337/announce000
udp://tracker.uw0.xyz:6969/announce000
udp://ipv4.tracker.harry.lu:80/announce000
udp://tracker.coppersurfer.tk:6969/announce000


File List: 





Comments
No comments still posted