Download Blood Red Sky (2021) [Hindi Dub] 720p WEB-DLRip Saicord torrent - GloDLS
Login
Username:
Password:
Remember Me:
[Signup]
[Recover Account]
Friends
Angie Torrents
Friendly Site

Pirateiro
Friendly site

Free Courses Online
Friendly site

ETTV
Friendly site

ProStyleX
Friendly site

KaranPC
Friendly site

P2PDL.com
Friendly site

OneHack
Friendly site

IGGGames
Friendly site

HTML tutorial
Torrent Details For "Blood Red Sky (2021) [Hindi Dub] 720p WEB-DLRip Saicord"

Blood Red Sky (2021) [Hindi Dub] 720p WEB-DLRip Saicord

To download this torrent, you need a BitTorrent client: Vuze or BTGuard
Download this torrent
Download using Magnet Link

Health:
Seeds: 1
Leechers: 4
Completed:
Last Checked: 04-08-2021 08:25:09

Uploader Reputation points : 3225





Write a Review for the Uploader:   0   Say Thanks with one good review:
Share on Facebook


Details
Name:Blood Red Sky (2021) [Hindi Dub] 720p WEB-DLRip Saicord
Description:


https://www.imdb.com/title/tt6402468






Video
ID                                       : 1
Format                                   : AVC
Format/Info                              : Advanced Video Codec
Format profile                           : [email protected]
Format settings                          : CABAC / 4 Ref Frames
Format settings, CABAC                   : Yes
Format settings, Reference frames        : 4 frames
Codec ID                                 : V_MPEG4/ISO/AVC
Duration                                 : 2 h 4 min
Bit rate                                 : 1 878 kb/s
Width                                    : 1 280 pixels
Height                                   : 720 pixels
Display aspect ratio                     : 16:9
Frame rate mode                          : Constant
Frame rate                               : 25.000 FPS
Color space                              : YUV
Chroma subsampling                       : 4:2:0
Bit depth                                : 8 bits
Scan type                                : Progressive
Bits/(Pixel*Frame)                       : 0.082
Stream size                              : 1.64 GiB (91%)
Language                                 : English
Default                                  : Yes
Forced                                   : No
Color range                              : Limited
Color primaries                          : BT.709
Transfer characteristics                 : BT.709
Matrix coefficients                      : BT.709

Audio
ID                                       : 2
Format                                   : AAC LC
Format/Info                              : Advanced Audio Codec Low Complexity
Codec ID                                 : A_AAC-2
Duration                                 : 2 h 4 min
Bit rate                                 : 192 kb/s
Channel(s)                               : 2 channels
Channel layout                           : L R
Sampling rate                            : 48.0 kHz
Frame rate                               : 46.875 FPS (1024 SPF)
Compression mode                         : Lossy
Stream size                              : 169 MiB (9%)
Language                                 : Hindi
Default                                  : Yes
Forced                                   : No
YouTube Video:   
Category:Movies
Language:Hindi  Hindi
Total Size:1.80 GB
Info Hash:E91568C89F019C57F07CB9635D5134D56BB34A40
Added By:Saicord Verified Uploader
Date Added:2021-08-04 15:25:08
Torrent Status:Torrent Verified


Ratings:Not Yet Rated (Log in to rate it)


Tracker:
udp://opentor.org:2710/announce

This Torrent also has backup trackers
URLSeedersLeechersCompleted
udp://opentor.org:2710/announce000
udp://tracker.torrent.eu.org:451/announce000
udp://tracker.cyberia.is:6969/announce000
udp://exodus.desync.com:6969/announce000
udp://tracker.moeking.me:6969/announce000
udp://tracker.opentrackr.org:1337/announce000
udp://tracker.tiny-vps.com:6969/announce000
udp://open.stealth.si:80/announce000
udp://tracker.iamhansen.xyz:2000/announce000
udp://tracker.theoks.net:6969/announce000
udp://retracker.lanta-net.ru:2710/announce000
udp://open.demonii.si:1337/announce000
udp://tracker.uw0.xyz:6969/announce000
udp://ipv4.tracker.harry.lu:80/announce000
udp://tracker.coppersurfer.tk:6969/announce000


File List: 





Comments
No comments still posted